<?xml version="1.0" standalone="no"?>
<!DOCTYPE svg PUBLIC "-//W3C//DTD SVG 1.1//EN" "http://www.w3.org/Graphics/SVG/1.1/DTD/svg11.dtd" >
<svg xmlns="http://www.w3.org/2000/svg" xmlns:xlink="http://www.w3.org/1999/xlink" version="1.1">
<metadata>
Created by FontForge 20201107 at Thu May  2 15:11:25 2024
 By 
Copyright (c) 2012 by [29 Arabic Letters] - Pascal Zoghbi. All rights reserved.
</metadata>
<defs>
<font id="29LTBukra-Bold" horiz-adv-x="0" >
  <font-face 
    font-family="29LT Bukra Bold"
    font-weight="700"
    font-stretch="normal"
    units-per-em="2048"
    panose-1="0 11 9 3 2 2 4 2 2 4"
    ascent="1690"
    descent="-358"
    x-height="1153"
    cap-height="1661"
    bbox="-309 -698 3074 2142"
    underline-thickness="102"
    underline-position="-204"
    unicode-range="U+001D-FEFC"
  />
<missing-glyph horiz-adv-x="1024" 
 />
    <glyph glyph-name="uniFEF5" unicode="&#xfedf;&#xfe82;" horiz-adv-x="1527" arabic-form="isolated" 
d="M113 287h583q72 0 129 17q60 18 103 52q40 34 63 86t23 127v1243h420v-286h-134v-946q0 -129 -37 -244q-37 -116 -116 -189q-87 -78 -216 -113q-126 -34 -294 -34h-490zM403 1468h287v-1079h-287v1079zM219 1708h559v-133h-559v133z" />
    <glyph glyph-name="uniFEF6" unicode="&#xfee0;&#xfe82;" horiz-adv-x="1531" arabic-form="final" 
d="M113 287h583q72 0 129 17q60 18 103 52q40 34 63 86t23 127v1243h420v-286h-134v-946q0 -97 -22 -189q91 -104 295 -104v-287q-95 0 -159 18q-61 17 -108 48q-45 29 -71 63q-24 30 -41 70q-26 -32 -47 -52q-87 -78 -216 -113q-126 -34 -294 -34h-490zM403 1468h287v-1079
h-287v1079zM223 1708h559v-133h-559v133z" />
    <glyph glyph-name="uniFEF7" unicode="&#xfedf;&#xfe84;" horiz-adv-x="1527" arabic-form="isolated" 
d="M113 287h583q72 0 129 17q60 18 103 52q40 34 63 86t23 127v1243h420v-286h-134v-946q0 -129 -37 -244q-37 -116 -116 -189q-87 -78 -216 -113q-126 -34 -294 -34h-490zM403 1468h287v-1079h-287v1079zM285 1669q0 141 68 197q69 57 190 57h102v-92h-86q-62 0 -86 -27
t-24 -75h262v-154h-426v94z" />
    <glyph glyph-name="uniFEF8" unicode="&#xfee0;&#xfe84;" horiz-adv-x="1531" arabic-form="final" 
d="M113 287h583q72 0 129 17q60 18 103 52q40 34 63 86t23 127v1243h420v-286h-134v-946q0 -97 -22 -189q91 -104 295 -104v-287q-95 0 -159 18q-61 17 -108 48q-45 29 -71 63q-24 30 -41 70q-26 -32 -47 -52q-87 -78 -216 -113q-126 -34 -294 -34h-490zM403 1468h287v-1079
h-287v1079zM285 1669q0 141 68 197q69 57 190 57h102v-92h-86q-62 0 -86 -27t-24 -75h262v-154h-426v94z" />
    <glyph glyph-name="uniFEF9" unicode="&#xfedf;&#xfe88;" horiz-adv-x="1527" arabic-form="isolated" 
d="M543 -506q-121 0 -190 57q-68 56 -68 197v94h426v-153h-262q0 -49 24 -76t86 -27h86v-92h-102zM113 287h583q72 0 129 17q60 18 103 52q40 34 63 86t23 127v1243h420v-286h-134v-946q0 -129 -37 -244q-37 -116 -116 -189q-87 -78 -216 -113q-126 -34 -294 -34h-490z
M403 1468h287v-1079h-287v1079z" />
    <glyph glyph-name="uniFEFA" unicode="&#xfee0;&#xfe88;" horiz-adv-x="1531" arabic-form="final" 
d="M113 287h583q72 0 129 17q60 18 103 52q40 34 63 86t23 127v1243h420v-286h-134v-946q0 -97 -22 -189q91 -104 295 -104v-287q-95 0 -159 18q-61 17 -108 48q-45 29 -71 63q-24 30 -41 70q-26 -32 -47 -52q-87 -78 -216 -113q-126 -34 -294 -34h-490zM403 1468h287v-1079
h-287v1079zM543 -506q-121 0 -190 57q-68 56 -68 197v94h426v-153h-262q0 -49 24 -76t86 -27h86v-92h-102z" />
    <glyph glyph-name="uniFEFB" unicode="&#xfedf;&#xfe8e;" horiz-adv-x="1527" arabic-form="isolated" 
d="M113 287h583q72 0 129 17q60 18 103 52q40 34 63 86t23 127v1243h420v-286h-134v-946q0 -129 -37 -244q-37 -116 -116 -189q-87 -78 -216 -113q-126 -34 -294 -34h-490zM403 1468h287v-1079h-287v1079z" />
    <glyph glyph-name="uniFEFC" unicode="&#xfee0;&#xfe8e;" horiz-adv-x="1531" arabic-form="final" 
d="M113 287h583q72 0 129 17q60 18 103 52q40 34 63 86t23 127v1243h420v-286h-134v-946q0 -97 -22 -189q91 -104 295 -104v-287q-95 0 -159 18q-61 17 -108 48q-45 29 -71 63q-24 30 -41 70q-26 -32 -47 -52q-87 -78 -216 -113q-126 -34 -294 -34h-490zM403 1468h287v-1079
h-287v1079z" />
    <glyph glyph-name="uni06440671" unicode="&#xfedf;&#xfb51;" horiz-adv-x="1472" 
d="M113 287h583q72 0 129 17q60 18 103 52q40 34 63 86t23 127v1243h420v-286h-134v-946q0 -129 -37 -244q-37 -116 -116 -189q-87 -78 -216 -113q-126 -34 -294 -34h-490zM403 1468h287v-1079h-287v1079zM258 1636h141q0 34 13 71q11 31 37 59q24 25 59 42q36 17 78 17
q104 0 168 -56q63 -55 63 -165v-80h-559v112zM582 1733q-48 0 -69 -29q-21 -28 -21 -68h182q0 36 -23 67q-23 30 -69 30z" />
    <glyph glyph-name="uni06440671.fina" unicode="&#xfee0;&#xfb51;" horiz-adv-x="1527" 
d="M113 287h583q72 0 129 17q60 18 103 52q40 34 63 86t23 127v1243h420v-286h-134v-946q0 -97 -22 -189q91 -104 295 -104v-287q-95 0 -159 18q-61 17 -108 48q-45 29 -71 63q-24 30 -41 70q-26 -32 -47 -52q-87 -78 -216 -113q-126 -34 -294 -34h-490zM403 1468h287v-1079
h-287v1079zM258 1636h141q0 34 13 71q11 31 37 59q24 25 59 42q36 17 78 17q104 0 168 -56q63 -55 63 -165v-80h-559v112zM582 1733q-48 0 -69 -29q-21 -28 -21 -68h182q0 36 -23 67q-23 30 -69 30z" />
    <glyph glyph-name="uni0621" unicode="&#x621;" horiz-adv-x="1112" arabic-form="isolated" 
d="M150 391q0 311 150 463t423 152h184v-287h-243q-102 0 -165 -72t-63 -201v-159h561v-287h-847v391z" />
    <glyph glyph-name="uni0622" unicode="&#x622;" horiz-adv-x="708" arabic-form="isolated" 
d="M274 1413h287v-1413h-287v1413zM143 1638h559v-133h-559v133z" />
    <glyph glyph-name="uni0623" unicode="&#x623;" horiz-adv-x="731" arabic-form="isolated" 
d="M297 1413h287v-1413h-287v1413zM225 1599q0 140 69 197t189 57h103v-92h-86q-63 0 -86 -26q-25 -28 -25 -76h262v-154h-426v94z" />
    <glyph glyph-name="uni0624" unicode="&#x624;" horiz-adv-x="1230" arabic-form="isolated" 
d="M1137 78q0 -115 -26 -214q-25 -97 -86 -167t-162 -109q-102 -39 -253 -39q-29 0 -75 4q-35 3 -69 9q-8 1 -71 14l-84 23l-20 288q85 -27 155 -39q72 -12 144 -12q54 0 104 5q45 4 77 23t51 50q20 34 26 86h-33q-147 0 -275 33q-131 34 -224 102q-95 69 -149 179t-54 264
q0 136 52 241q53 107 145 180q93 73 222 114q127 40 283 40h324zM399 578q0 -71 26 -126q26 -54 71 -92q44 -37 105 -55q60 -18 130 -18h121v579h-121q-67 0 -124 -20q-58 -20 -106 -59q-46 -37 -74 -91t-28 -118zM707 1460q0 141 68 197q69 57 190 57h122v-92h-106
q-62 0 -86 -27q-25 -28 -25 -75v-56h283v-153h-446v149z" />
    <glyph glyph-name="uni0625" unicode="&#x625;" horiz-adv-x="720" arabic-form="isolated" 
d="M483 -449q-119 0 -189 58q-69 57 -69 196v95h426v-154h-262q0 -48 25 -76q23 -26 86 -26h86v-93h-103zM297 1661h287v-1661h-287v1661z" />
    <glyph glyph-name="uni0626" unicode="&#x626;" horiz-adv-x="2217" arabic-form="isolated" 
d="M84 1079q0 140 69 197t189 57h123v-92h-107q-62 0 -86 -27t-24 -75v-56h282v-153h-446v149zM821 -256q-92 0 -167 9t-138 30q-66 22 -116 52q-51 31 -99 77q-76 72 -106 185q-31 118 -31 239v448h287v-413q0 -94 19 -157t67 -105q53 -45 133 -62q77 -16 172 -16h299v577
q0 147 42 255q41 107 134 181q71 55 172 82t219 27h387v-1153h-287v866h-131q-56 0 -96 -11q-44 -12 -78 -40q-33 -27 -55 -82q-21 -52 -21 -106v-883h-606z" />
    <glyph glyph-name="uni0627" unicode="&#x627;" horiz-adv-x="706" arabic-form="isolated" 
d="M266 1661h287v-1661h-287v1661z" />
    <glyph glyph-name="uni0628" unicode="&#x628;" horiz-adv-x="1767" arabic-form="isolated" 
d="M762 0q-92 0 -167 9t-138 30q-66 22 -116 52q-51 31 -99 77q-78 73 -107 185q-31 118 -31 239v387h287v-352q0 -91 20 -157q19 -64 66 -105q53 -45 133 -62q77 -16 172 -16h574v866h286v-1153h-880zM967 -436q-69 0 -118 39q-50 39 -50 114q0 68 48 110t120 42
q71 0 119 -42q49 -43 49 -110q0 -74 -51 -114q-50 -39 -117 -39z" />
    <glyph glyph-name="uni0629" unicode="&#x629;" horiz-adv-x="1255" arabic-form="isolated" 
d="M813 0q-153 0 -282 35t-221 106q-91 71 -145 181q-52 107 -52 253q0 125 47 231q47 105 137 182q92 78 220 121q132 44 296 44h41v102h287v-1255h-328zM854 287v579h-111q-65 0 -125 -19q-62 -20 -110 -56t-79 -92q-30 -54 -30 -124t28 -124t74 -91t105 -55
q60 -18 123 -18h125zM969 1407q-66 0 -113 38t-47 109q0 66 46 106t114 40q70 0 114 -40q45 -41 45 -106q0 -71 -47 -109t-112 -38zM524 1407q-65 0 -112 38t-47 109q0 66 46 106t113 40q68 0 114 -40t46 -106q0 -71 -47 -109t-113 -38z" />
    <glyph glyph-name="uni062A" unicode="&#x62a;" horiz-adv-x="1767" arabic-form="isolated" 
d="M762 0q-92 0 -167 9t-138 30q-66 22 -116 52q-51 31 -99 77q-78 73 -107 185q-31 118 -31 239v387h287v-352q0 -91 20 -157q19 -64 66 -105q53 -45 133 -62q77 -16 172 -16h574v866h286v-1153h-880zM662 1219q-67 0 -113 37q-47 38 -47 110q0 65 46 105t114 40
q67 0 113 -40t46 -105q0 -72 -47 -110q-46 -37 -112 -37zM1106 1219q-67 0 -113 37q-47 38 -47 110q0 65 46 105t114 40q71 0 115 -40q45 -41 45 -105q0 -72 -47 -110q-46 -37 -113 -37z" />
    <glyph glyph-name="uni062B" unicode="&#x62b;" horiz-adv-x="1767" arabic-form="isolated" 
d="M762 0q-92 0 -167 9t-138 30q-66 22 -116 52q-51 31 -99 77q-78 73 -107 185q-31 118 -31 239v387h287v-352q0 -91 20 -157q19 -64 66 -105q53 -45 133 -62q77 -16 172 -16h574v866h286v-1153h-880zM666 1210q-62 0 -108 36t-46 108q0 63 44 102t110 39q65 0 110 -39
t45 -102q0 -72 -47 -108q-46 -36 -108 -36zM883 1536q-53 0 -96 32q-42 32 -42 93q0 55 39 90q40 35 99 35q58 0 98 -35q39 -35 39 -90q0 -61 -41 -93t-96 -32zM1100 1210q-62 0 -108 36t-46 108q0 63 44 102t110 39q68 0 111 -39q44 -39 44 -102q0 -72 -46 -108
q-47 -36 -109 -36z" />
    <glyph glyph-name="uni062C" unicode="&#x62c;" horiz-adv-x="1224" arabic-form="isolated" 
d="M215 -451q-76 107 -120 237q-44 129 -44 294q0 110 19 207h757q17 71 26 147q9 80 9 146t-23 132q-24 68 -77 115q-89 78 -242 78q-83 0 -149 -19q-68 -20 -148 -71l-119 250q103 58 211 92q113 35 240 35q125 0 230 -41t178 -117q83 -83 133 -201q51 -120 51 -276
q0 -86 -10 -162q-11 -86 -25 -153q-18 -88 -32 -136q-4 -14 -10.5 -37t-11.5 -39.5t-9 -29.5h-707v-31q0 -73 23 -151q22 -76 73 -164zM748 -436q-69 0 -118 39q-50 39 -50 114q0 68 48 110t120 42q71 0 119 -42t48 -110q0 -75 -50 -114q-49 -39 -117 -39z" />
    <glyph glyph-name="uni062D" unicode="&#x62d;" horiz-adv-x="1224" arabic-form="isolated" 
d="M215 -451q-76 107 -120 237q-44 129 -44 294q0 110 19 207h757q17 71 26 147q9 80 9 146t-23 132q-24 68 -77 115q-89 78 -242 78q-83 0 -149 -19q-68 -20 -148 -71l-119 250q103 58 211 92q113 35 240 35q125 0 230 -41t178 -117q83 -83 133 -201q51 -120 51 -276
q0 -86 -10 -162q-11 -86 -25 -153q-18 -88 -32 -136q-4 -14 -10.5 -37t-11.5 -39.5t-9 -29.5h-707v-31q0 -73 23 -151q22 -76 73 -164z" />
    <glyph glyph-name="uni062E" unicode="&#x62e;" horiz-adv-x="1224" arabic-form="isolated" 
d="M502 1352q-69 0 -118 39q-50 39 -50 114q0 68 48 110t120 42t120 -42t48 -110q0 -75 -50 -114t-118 -39zM215 -451q-76 107 -120 237q-44 129 -44 294q0 110 19 207h757q17 71 26 147q9 80 9 146t-23 132q-24 68 -77 115q-89 78 -242 78q-83 0 -149 -19q-68 -20 -148 -71
l-119 250q103 58 211 92q113 35 240 35q125 0 230 -41t178 -117q83 -83 133 -201q51 -120 51 -276q0 -86 -10 -162q-11 -86 -25 -153q-17 -85 -32 -135q-3 -10 -14 -49.5t-17 -57.5h-707v-31q0 -73 23 -151q22 -76 73 -164z" />
    <glyph glyph-name="uni062F" unicode="&#x62f;" horiz-adv-x="1177" arabic-form="isolated" 
d="M72 287h714v313q0 63 -13 108t-42 80q-29 37 -73 57q-47 21 -101 21h-123v287h94q139 0 244 -36q104 -36 182 -118q66 -69 93 -177q26 -104 26 -234v-588h-1001v287z" />
    <glyph glyph-name="uni0630" unicode="&#x630;" horiz-adv-x="1177" arabic-form="isolated" 
d="M586 1305q-70 0 -118 38q-50 39 -50 115q0 68 48 110t120 42t120 -42t48 -110q0 -75 -51 -115q-48 -38 -117 -38zM72 287h714v313q0 63 -13 108t-42 80q-29 37 -73 57q-47 21 -101 21h-123v287h94q139 0 244 -36q104 -36 182 -118q66 -69 93 -177q26 -104 26 -234v-588
h-1001v287z" />
    <glyph glyph-name="uni0631" unicode="&#x631;" horiz-adv-x="759" arabic-form="isolated" 
d="M227 -451q-28 0 -80 6q-31 4 -65 13l-21 287q38 -10 72 -15q27 -4 64 -4q84 0 119 47q34 46 34 154v1116h287v-1075q0 -138 -23 -239q-23 -102 -71 -164q-50 -65 -127 -95q-81 -31 -189 -31z" />
    <glyph glyph-name="uni0632" unicode="&#x632;" horiz-adv-x="776" arabic-form="isolated" 
d="M227 -451q-28 0 -80 6q-31 4 -65 13l-21 287q38 -10 72 -15q27 -4 64 -4q84 0 119 47q34 46 34 154v1116h287v-1075q0 -138 -23 -239q-23 -102 -71 -164q-50 -65 -127 -95q-81 -31 -189 -31zM485 1327q-67 0 -117 39q-51 40 -51 115q0 66 49 109q48 42 119 42
q72 0 120 -42t48 -109q0 -76 -50 -115t-118 -39z" />
    <glyph glyph-name="uni0633" unicode="&#x633;" horiz-adv-x="2912" arabic-form="isolated" 
d="M2277 -20q-59 0 -116 9q-61 10 -111 31t-99 61q-46 37 -81 95q-78 -83 -184 -129q-108 -47 -224 -47h-211v-256h-471q-92 0 -167 9t-138 30q-66 22 -116 52q-51 31 -99 77q-76 72 -106 185q-31 118 -31 239v670h287v-635q0 -94 19 -157t67 -105q53 -45 133 -62
q77 -16 172 -16h164v1122h286v-866h211q49 0 93 11q51 13 89 41q40 30 64 79q25 52 25 125v508h286v-508q5 -142 73 -209q70 -68 185 -68q123 0 185 70q61 68 61 188v772h285v-735q0 -296 -131 -439q-130 -142 -400 -142z" />
    <glyph glyph-name="uni0634" unicode="&#x634;" horiz-adv-x="2912" arabic-form="isolated" 
d="M2277 -20q-59 0 -116 9q-61 10 -111 31t-99 61q-46 37 -81 95q-78 -83 -184 -129q-108 -47 -224 -47h-211v-256h-471q-92 0 -167 9t-138 30q-66 22 -116 52q-51 31 -99 77q-76 72 -106 185q-31 118 -31 239v670h287v-635q0 -94 19 -157t67 -105q53 -45 133 -62
q77 -16 172 -16h164v1122h286v-866h211q49 0 93 11q51 13 89 41q40 30 64 79q25 52 25 125v508h286v-496q0 -147 71 -218t187 -71q123 0 185 70q61 68 61 188v772h285v-735q0 -296 -131 -439q-130 -142 -400 -142zM2095 1339q-61 0 -107 36t-46 108q0 63 44 102t109 39
q69 0 112 -39q44 -39 44 -102q0 -72 -46 -108q-47 -36 -110 -36zM1661 1339q-61 0 -108 36q-46 36 -46 108q0 63 44 102q43 39 110 39q66 0 111 -39t45 -102q0 -71 -48 -108q-47 -36 -108 -36zM1878 1665q-52 0 -95 32q-42 31 -42 93q0 56 39 90q40 35 98 35t98 -35
q39 -34 39 -90q0 -61 -41 -93t-96 -32z" />
    <glyph glyph-name="uni0635" unicode="&#x635;" horiz-adv-x="2535" arabic-form="isolated" 
d="M782 -256q-92 0 -167 9t-138 30q-66 22 -116 52q-51 31 -99 77q-76 72 -106 185q-31 118 -31 239v670h287v-635q0 -94 19 -157t67 -105q53 -45 133 -62q77 -16 172 -16h164v1161h286v-141h633q139 0 244 -36q104 -36 182 -118q65 -68 92 -177q27 -108 27 -235v-485h-1178
v-256h-471zM1253 766v-479h891v211q0 62 -13 107q-13 47 -42 81q-27 35 -73 57q-48 23 -101 23h-662z" />
    <glyph glyph-name="uni0636" unicode="&#x636;" horiz-adv-x="2535" arabic-form="isolated" 
d="M782 -256q-92 0 -167 9t-138 30q-66 22 -116 52q-51 31 -99 77q-76 72 -106 185q-31 118 -31 239v670h287v-635q0 -94 19 -157t67 -105q53 -45 133 -62q77 -16 172 -16h164v1161h286v-141h633q139 0 244 -36q104 -36 182 -118q65 -68 92 -177q27 -108 27 -235v-485h-1178
v-256h-471zM1253 766v-479h891v211q0 62 -13 107q-13 47 -42 81q-27 35 -73 57q-48 23 -101 23h-662zM1683 1235q-67 0 -117 39t-50 115q0 67 48 109t119 42q72 0 120 -42t48 -109q0 -76 -50 -115q-49 -39 -118 -39z" />
    <glyph glyph-name="uni0637" unicode="&#x637;" horiz-adv-x="1800" arabic-form="isolated" 
d="M37 287h201v1374h286v-610h625q139 0 244 -36q104 -36 182 -118q65 -68 92 -177q27 -108 27 -235v-485h-1657v287zM524 766v-479h883v211q0 62 -13 107q-14 47 -42 81q-27 35 -73 57q-48 23 -101 23h-654z" />
    <glyph glyph-name="uni0638" unicode="&#x638;" horiz-adv-x="1800" arabic-form="isolated" 
d="M37 287h201v1374h286v-610h625q139 0 244 -36q104 -36 182 -118q65 -68 92 -177q27 -108 27 -235v-485h-1657v287zM524 766v-479h883v211q0 62 -13 107q-14 47 -42 81q-27 35 -73 57q-48 23 -101 23h-654zM967 1235q-69 0 -118 39q-50 39 -50 115q0 67 48 109t120 42
q71 0 119 -42q49 -43 49 -109q0 -75 -51 -115q-50 -39 -117 -39z" />
    <glyph glyph-name="uni0639" unicode="&#x639;" horiz-adv-x="1249" arabic-form="isolated" 
d="M227 -451q-74 104 -119 237q-45 132 -45 294q0 110 19 207h154q-38 78 -61 157q-25 84 -25 185q0 147 57 258q57 110 147 184q72 60 167 90q98 31 206 31q115 0 218 -30q100 -29 208 -83l-96 -260q-67 38 -145 63t-150 25q-140 0 -223 -69q-55 -46 -78 -106t-23 -126
q0 -96 29 -177q28 -77 80 -142h649v-287h-842v-31q0 -73 23 -151q21 -73 74 -164z" />
    <glyph glyph-name="uni063A" unicode="&#x63a;" horiz-adv-x="1249" arabic-form="isolated" 
d="M227 -451q-74 104 -119 237q-45 132 -45 294q0 110 19 207h154q-38 78 -61 157q-25 84 -25 185q0 147 57 258q57 110 147 184q72 60 167 90q98 31 206 31q115 0 218 -30q100 -29 208 -83l-96 -260q-67 38 -145 63t-150 25q-140 0 -223 -69q-55 -46 -78 -106t-23 -126
q0 -96 29 -177q28 -77 80 -142h649v-287h-842v-31q0 -73 23 -151q21 -73 74 -164zM700 1364q-68 0 -117 39q-51 40 -51 115q0 66 49 109q48 42 119 42q72 0 120 -42t48 -109q0 -76 -50 -115t-118 -39z" />
    <glyph glyph-name="uni0641" unicode="&#x641;" horiz-adv-x="2166" arabic-form="isolated" 
d="M762 0q-92 0 -167 9t-138 30q-66 22 -116 52q-51 31 -99 77q-78 73 -107 185q-31 118 -31 239v387h287v-352q0 -91 20 -157q19 -64 66 -105q53 -45 133 -62q77 -16 172 -16h334q-46 61 -72 131q-26 69 -26 160q0 133 50 241q49 105 140 181q90 75 217 114q128 39 281 39
h338v-1153h-1282zM1305 578q0 -94 42 -168q43 -75 113 -123h297v579h-121q-61 0 -121 -18q-62 -19 -107 -55q-46 -37 -75 -92q-28 -53 -28 -123zM1649 1327q-69 0 -118 39q-50 39 -50 115q0 67 48 109t120 42q71 0 119 -42q49 -43 49 -109q0 -75 -51 -115q-50 -39 -117 -39z
" />
    <glyph glyph-name="uni0642" unicode="&#x642;" horiz-adv-x="1796" arabic-form="isolated" 
d="M764 -451q-84 0 -167 10q-80 10 -138 29q-62 21 -116 53t-99 76q-77 73 -107 186q-31 118 -31 238v449h287v-414q0 -91 20 -157q19 -65 66 -105q51 -44 133 -61t172 -17h596v164h-37q-147 0 -275 33q-129 33 -223 102q-96 70 -150 179q-54 110 -54 264q0 136 52 241
q52 106 146 180q93 73 222 114q127 40 282 40h324v-1604h-903zM928 578q0 -73 25 -126q26 -54 71 -92q44 -37 105 -55q60 -18 131 -18h120v579h-120q-67 0 -124 -20q-60 -21 -107 -59q-46 -37 -74 -91q-27 -53 -27 -118zM1493 1327q-66 0 -113 38t-47 110q0 65 46 105
t114 40q71 0 115 -40q45 -40 45 -105q0 -72 -47 -110t-113 -38zM1049 1327q-66 0 -113 38t-47 110q0 65 46 105t114 40q67 0 113 -40t46 -105q0 -72 -47 -110t-112 -38z" />
    <glyph glyph-name="uni0643" unicode="&#x643;" horiz-adv-x="1921" arabic-form="isolated" 
d="M840 0q-92 0 -167 9t-138 30q-66 22 -116 52q-54 32 -100 77q-76 72 -106 185q-31 118 -31 239v387h287v-352q0 -94 19 -157t67 -105q53 -45 133 -62q77 -16 172 -16h574v1374h286v-1661h-880zM745 864q0 140 69 197t190 57h122v-92h-106q-62 0 -86 -27q-25 -28 -25 -75
v-56h283v-153h-447v149z" />
    <glyph glyph-name="uni0644" unicode="&#x644;" horiz-adv-x="1458" arabic-form="isolated" 
d="M770 -256q-92 0 -167 9t-138 30q-66 22 -116 52q-51 31 -99 77q-78 73 -107 185q-30 114 -30 239v670h286v-635q0 -91 20 -157q19 -64 66 -105q53 -45 133 -62q77 -16 173 -16h163v1630h422v-287h-135v-1630h-471z" />
    <glyph glyph-name="uni0645" unicode="&#x645;" horiz-adv-x="1871" arabic-form="isolated" 
d="M1171 -225q-105 0 -195 32q-91 32 -170 91q-76 57 -133 136q-56 78 -85 171q-115 -8 -168 -82q-34 -46 -48 -117q-14 -72 -14 -149v-308h-286v312q0 161 37 276q39 120 114 203q32 36 75 64q50 32 88 48q41 17 93 29q49 11 88 11q17 106 72 206q56 100 134 166
q83 71 182 110q101 40 216 40q129 0 243 -48q113 -48 199 -132q84 -82 133 -199q48 -114 48 -248q0 -131 -50 -243q-48 -108 -136 -193q-85 -82 -199 -129t-238 -47zM1171 61q68 0 132 25q57 22 107 69q46 43 72 104q25 59 25 132q0 71 -24 133q-24 61 -70 107
q-45 45 -106 70q-63 26 -136 26q-71 0 -131 -27q-59 -27 -102 -71q-44 -46 -68 -107t-24 -131t24 -130q23 -58 69 -104t103 -70q61 -26 129 -26z" />
    <glyph glyph-name="uni0646" unicode="&#x646;" horiz-adv-x="1366" arabic-form="isolated" 
d="M770 -256q-92 0 -167 9t-138 30q-66 22 -116 52q-51 31 -99 77q-78 73 -107 185q-30 114 -30 239v670h286v-635q0 -91 20 -157q19 -64 66 -105q53 -45 133 -62q77 -16 173 -16h163v975h287v-1262h-471zM686 1188q-68 0 -118 39t-50 114q0 68 48 110t120 42t120 -42
t48 -110q0 -75 -50 -114t-118 -39z" />
    <glyph glyph-name="uni0648" unicode="&#x648;" horiz-adv-x="1261" arabic-form="isolated" 
d="M1137 78q0 -115 -26 -214q-25 -97 -86 -167t-162 -109q-102 -39 -253 -39q-29 0 -75 4q-35 3 -69 9q-8 1 -71 14l-84 23l-20 288q85 -27 155 -39q72 -12 144 -12q54 0 104 5q45 4 77 23t51 50q20 34 26 86h-33q-147 0 -275 33q-131 34 -224 102q-95 69 -149 179t-54 264
q0 136 52 241q53 107 145 180q93 73 222 114q127 40 283 40h324zM399 578q0 -71 26 -126q26 -54 71 -92q44 -37 105 -55q60 -18 130 -18h121v579h-121q-67 0 -124 -20q-58 -20 -106 -59q-46 -37 -74 -91t-28 -118z" />
    <glyph glyph-name="uni0649" unicode="&#x649;" horiz-adv-x="2156" arabic-form="isolated" 
d="M760 -256q-92 0 -167 9t-138 30q-66 22 -116 52q-51 31 -99 77q-78 73 -107 185q-31 118 -31 239v448h287v-413q0 -91 20 -157q19 -64 66 -105q53 -45 133 -62q77 -16 172 -16h299v577q0 147 42 255q41 107 134 181q71 55 172 82t220 27h387v-1153h-287v866h-131
q-56 0 -96 -11q-44 -12 -78 -40q-35 -29 -56 -82q-20 -50 -20 -106v-883h-606z" />
    <glyph glyph-name="uni064A" unicode="&#x64a;" horiz-adv-x="2015" arabic-form="isolated" 
d="M631 -256q-112 0 -186 7q-75 7 -145 23q-66 15 -126 42q-69 31 -129 65l115 252q102 -58 189 -80t190 -22h399v577q0 147 42 255q41 107 134 181q71 55 172 82q100 27 219 27h387v-1153h-286v866h-131q-57 0 -97 -11q-44 -12 -78 -40q-33 -27 -55 -82q-20 -50 -20 -106
v-883h-594zM588 190q-68 0 -118 39t-50 115q0 68 48 110t120 42t120 -42t48 -110q0 -76 -50 -115t-118 -39zM588 625q-68 0 -118 39t-50 114q0 68 48 110t120 42t120 -42t48 -110q0 -75 -50 -114t-118 -39z" />
    <glyph glyph-name="uni066E.init" unicode="&#x66e;" horiz-adv-x="663" 
d="M0 287h254v866h287v-1153h-541v287z" />
    <glyph glyph-name="uni066E.medi" unicode="&#x66e;" horiz-adv-x="720" 
d="M0 287h254v866h287v-866h219v-287h-760v287z" />
    <glyph glyph-name="uni066E.fina" unicode="&#x66e;" horiz-adv-x="1824" 
d="M762 0q-92 0 -167 9t-138 30q-66 22 -116 52q-51 31 -99 77q-78 73 -107 185q-31 118 -31 239v387h287v-352q0 -91 20 -157q19 -64 66 -105q53 -45 133 -62q77 -16 172 -16h574v866h286v-866h222v-287h-1102z" />
    <glyph glyph-name="uni066F.init" unicode="&#x66f;" horiz-adv-x="1294" 
d="M0 287h274q-44 58 -71 131q-27 72 -27 160q0 133 50 241q48 104 141 181q90 75 217 114t280 39h338v-1153h-1202v287zM463 578q0 -94 42 -168t114 -123h296v579h-120q-62 0 -122 -18q-62 -19 -107 -55q-44 -36 -74 -92q-29 -55 -29 -123z" />
    <glyph glyph-name="uni066F.medi" unicode="&#x66f;" horiz-adv-x="1351" 
d="M0 287h274q-44 58 -71 131q-27 72 -27 160q0 133 50 241q48 104 141 181q90 75 217 114t280 39h338v-866h191v-287h-1393v287zM463 578q0 -94 42 -168t114 -123h296v579h-120q-62 0 -122 -18q-62 -19 -107 -55q-44 -36 -74 -92q-29 -55 -29 -123z" />
    <glyph glyph-name="uni066F.fina" unicode="&#x66f;" horiz-adv-x="1849" 
d="M764 -451q-84 0 -167 10q-80 10 -138 29q-62 21 -116 53t-99 76q-77 73 -107 186q-31 118 -31 238v449h287v-414q0 -91 20 -157q19 -65 66 -105q51 -44 133 -61t172 -17h596v164h-37q-147 0 -275 33q-129 33 -223 102q-96 70 -150 179q-54 110 -54 264q0 136 52 241
q52 106 146 180q93 73 222 114q127 40 282 40h324v-866h221v-287h-221v-451h-903zM928 578q0 -73 25 -126q26 -54 71 -92q44 -37 105 -55q60 -18 131 -18h120v579h-120q-67 0 -124 -20q-60 -21 -107 -59q-46 -37 -74 -91q-27 -53 -27 -118z" />
    <glyph glyph-name="uni0671" unicode="&#x671;" horiz-adv-x="702" arabic-form="isolated" 
d="M274 1413h287v-1413h-287v1413zM143 1618h142q0 37 12 71q11 31 37 59q24 25 59 42q33 16 78 16q106 0 168 -55q63 -55 63 -166v-80h-559v113zM467 1714q-48 0 -69 -28t-21 -68h182q0 37 -22 66q-23 30 -70 30z" />
    <glyph glyph-name="uni0679" unicode="&#x679;" horiz-adv-x="1632" arabic-form="isolated" 
d="M762 0q-92 0 -167 9t-138 30q-66 22 -116 52q-51 31 -99 77q-78 73 -107 185q-31 118 -31 239v387h287v-352q0 -91 20 -157q19 -64 66 -105q53 -45 133 -62q77 -16 172 -16h574v866h286v-1153h-880zM750 1415h104q106 0 168 -55q63 -56 63 -166v-80h-559v113h103v303h121
v-115zM750 1323v-96h192q0 37 -22 66q-23 30 -64 30h-106z" />
    <glyph glyph-name="uni067E" unicode="&#x67e;" horiz-adv-x="1767" arabic-form="isolated" 
d="M762 0q-92 0 -167 9t-138 30q-66 22 -116 52q-51 31 -99 77q-78 73 -107 185q-31 118 -31 239v387h287v-352q0 -91 20 -157q19 -64 66 -105q53 -45 133 -62q77 -16 172 -16h574v866h286v-1153h-880zM782 -422q-60 0 -107 36q-46 36 -46 107q0 62 44 101q43 39 109 39
t111 -39t45 -101q0 -71 -47 -107t-109 -36zM999 -698q-54 0 -95 31q-42 31 -42 94q0 55 39 90q38 34 98 34q61 0 99 -34q39 -35 39 -90q0 -62 -41 -94q-40 -31 -97 -31zM1217 -422q-61 0 -108 36q-46 36 -46 107q0 62 44 101q43 39 110 39t111 -39t44 -101q0 -71 -46 -107
t-109 -36z" />
    <glyph glyph-name="uni0686" unicode="&#x686;" horiz-adv-x="1132" arabic-form="isolated" 
d="M70 0q-7 21 -11 37q-5 17 -6 37q-2 28 -2 43q0 36 1 50q2 28 3 40q2 19 6 38q5 19 9 42h757q17 71 26 147q9 80 9 146t-23 132q-24 68 -77 115q-89 78 -242 78q-83 0 -149 -19q-68 -20 -148 -71l-119 250q103 58 211 92q113 35 240 35q125 0 230 -41t178 -117
q83 -83 133 -201q51 -120 51 -276q0 -86 -10 -162q-11 -86 -25 -153q-18 -88 -32 -136q-4 -14 -10.5 -37t-11.5 -39.5t-9 -29.5h-979zM354 -334q-60 0 -107 36q-46 36 -46 108q0 61 44 100t109 39q66 0 111 -39t45 -100q0 -72 -47 -108q-46 -36 -109 -36zM571 -610
q-54 0 -95 31q-42 31 -42 94q0 55 39 90q40 35 98 35q59 0 99 -35q39 -35 39 -90q0 -62 -41 -94q-40 -31 -97 -31zM788 -334q-60 0 -107 36q-46 36 -46 108q0 61 44 100q43 39 109 39q68 0 112 -39t44 -100q0 -72 -46 -108t-110 -36z" />
    <glyph glyph-name="uni0688" unicode="&#x688;" horiz-adv-x="1091" arabic-form="isolated" 
d="M72 287h714v313q0 63 -13 108t-42 80q-29 37 -73 57q-47 21 -101 21h-123v287h94q139 0 244 -36q104 -36 182 -118q66 -69 93 -177q26 -104 26 -234v-588h-1001v287zM489 1622h105q106 0 168 -55q63 -55 63 -166v-80h-559v113h103v303h120v-115zM489 1530v-96h193
q0 35 -23 66q-23 30 -63 30h-107z" />
    <glyph glyph-name="uni0691" unicode="&#x691;" horiz-adv-x="755" arabic-form="isolated" 
d="M227 -451q-28 0 -80 6q-31 4 -65 13l-21 287q38 -10 72 -15q27 -4 64 -4q84 0 119 47q34 46 34 154v1116h287v-1075q0 -138 -23 -239q-23 -102 -71 -164q-50 -65 -127 -95q-81 -31 -189 -31zM440 1622h105q106 0 168 -55q63 -55 63 -166v-80h-559v113h102v303h121v-115z
M440 1530v-96h193q0 35 -23 66q-22 30 -63 30h-107z" />
    <glyph glyph-name="uni0698" unicode="&#x698;" horiz-adv-x="774" arabic-form="isolated" 
d="M229 -451q-27 0 -79 6q-33 4 -66 13l-21 287q38 -10 72 -15q27 -4 64 -4q84 0 119 47q34 46 34 154v1116h287v-1075q0 -138 -23 -239q-23 -102 -71 -164q-50 -65 -127 -95q-81 -31 -189 -31zM281 1339q-61 0 -108 36q-46 36 -46 108q0 63 44 102t110 39q65 0 110 -39
t45 -102q0 -72 -47 -108t-108 -36zM498 1665q-53 0 -96 32q-42 31 -42 93q0 56 39 90q40 35 99 35q58 0 98 -35q39 -34 39 -90q0 -61 -41 -93t-96 -32zM715 1339q-61 0 -108 36q-46 36 -46 108q0 63 44 102t110 39q67 0 111 -39t44 -102q0 -72 -46 -108t-109 -36z" />
    <glyph glyph-name="uni06A1.init" unicode="&#x6a1;" horiz-adv-x="1294" 
d="M0 287h274q-44 58 -71 131q-27 72 -27 160q0 133 50 241q48 104 141 181q90 75 217 114t280 39h338v-1153h-1202v287zM463 578q0 -94 42 -168t114 -123h296v579h-120q-62 0 -122 -18q-62 -19 -107 -55q-44 -36 -74 -92q-29 -55 -29 -123z" />
    <glyph glyph-name="uni06A1.medi" unicode="&#x6a1;" horiz-adv-x="1351" 
d="M0 287h274q-44 58 -71 131q-27 72 -27 160q0 133 50 241q48 104 141 181q90 75 217 114t280 39h338v-866h191v-287h-1393v287zM463 578q0 -94 42 -168t114 -123h296v579h-120q-62 0 -122 -18q-62 -19 -107 -55q-44 -36 -74 -92q-29 -55 -29 -123z" />
    <glyph glyph-name="uni06A1.fina" unicode="&#x6a1;" horiz-adv-x="2351" 
d="M838 0q-92 0 -167 9q-77 9 -139 30q-64 21 -115 52q-54 32 -100 77q-76 72 -106 185q-31 118 -31 239v387h287v-352q0 -94 19 -157t67 -105q53 -45 133 -62q77 -16 172 -16h334q-46 61 -72 131q-26 69 -26 160q0 133 50 241q49 105 140 181q90 75 217 114q128 39 281 39
h338v-866h221v-287h-1503zM1380 578q0 -94 42 -168t114 -123h297v579h-121q-62 0 -122 -18t-106 -55t-75 -92t-29 -123z" />
    <glyph glyph-name="uni06A4" unicode="&#x6a4;" horiz-adv-x="2166" arabic-form="isolated" 
d="M762 0q-92 0 -167 9t-138 30q-66 22 -116 52q-51 31 -99 77q-78 73 -107 185q-31 118 -31 239v387h287v-352q0 -91 20 -157q19 -64 66 -105q53 -45 133 -62q77 -16 172 -16h334q-46 61 -72 131q-26 69 -26 160q0 133 50 241q49 105 140 181q90 75 217 114q128 39 281 39
h338v-1153h-1282zM1305 578q0 -94 42 -168q43 -75 113 -123h297v579h-121q-61 0 -121 -18q-62 -19 -107 -55q-46 -37 -75 -92q-28 -53 -28 -123zM1868 1339q-62 0 -108 36t-46 108q0 63 44 102t110 39q68 0 111 -39q44 -39 44 -102q0 -72 -46 -108q-47 -36 -109 -36z
M1434 1339q-62 0 -108 36t-46 108q0 63 44 102t110 39q65 0 110 -39t45 -102q0 -72 -47 -108q-46 -36 -108 -36zM1651 1665q-53 0 -96 32q-42 31 -42 93q0 56 39 90q40 35 99 35q58 0 98 -35q39 -34 39 -90q0 -61 -41 -93t-96 -32z" />
    <glyph glyph-name="uni06A9" unicode="&#x6a9;" horiz-adv-x="2119" arabic-form="isolated" 
d="M762 0q-181 0 -302 44q-118 43 -208 130q-76 73 -112 184t-36 238v385h287v-350q0 -178 96 -256q54 -46 130 -67q77 -21 167 -21h940v237q0 56 -10 96q-10 41 -39 76q-31 38 -74 57q-47 21 -98 21h-631q-40 52 -68 123q-28 70 -32 164l313 600h345l-334 -600h366
q130 0 229 -35q98 -35 171 -106q149 -143 149 -428v-492h-1249z" />
    <glyph glyph-name="uni06AF" unicode="&#x6af;" horiz-adv-x="1976" arabic-form="isolated" 
d="M662 1061h-175l299 602h175zM2011 0v492q0 285 -149 428q-73 71 -171 106q-99 35 -229 35h-366l334 600h-345l-313 -600q4 -94 32 -164q28 -71 68 -123h631q51 0 98 -21q43 -19 74 -57q29 -35 39 -76q10 -40 10 -96v-237h-940q-90 0 -167 21q-76 21 -130 67
q-96 78 -96 256v350h-287v-385q0 -127 36 -238t112 -184q90 -87 208 -130q121 -44 302 -44h1249z" />
    <glyph glyph-name="uni06BA" unicode="&#x6ba;" horiz-adv-x="1366" arabic-form="isolated" 
d="M770 -256q-92 0 -167 9t-138 30q-66 22 -116 52q-51 31 -99 77q-78 73 -107 185q-30 114 -30 239v670h286v-635q0 -91 20 -157q19 -64 66 -105q53 -45 133 -62q77 -16 173 -16h163v975h287v-1262h-471z" />
    <glyph glyph-name="uni06BE" unicode="&#x6be;" horiz-adv-x="1742" arabic-form="isolated" 
d="M174 287h234q-10 47 -13 68q-6 41 -6 79q0 229 113 351t311 122q93 0 171 -34q80 -35 136 -95q58 -63 89 -148q32 -88 32 -194q0 -35 -5 -80q-4 -35 -11 -69h186q7 53 12 102q4 44 4 92q0 124 -25 217q-26 96 -81 181q-69 104 -183 157q-117 54 -288 54q-131 0 -241 -43
q-106 -42 -193 -89l-97 261q140 69 295 114q156 45 310 45q112 0 206 -24q95 -24 172 -68q81 -46 137 -102q63 -63 107 -127q86 -126 127 -282q41 -158 41 -343q0 -55 -7 -108q-10 -79 -17 -115q-11 -61 -24 -112q-14 -57 -28 -97h-1464v287zM645 440q0 -40 5 -85
q4 -37 9 -68h312q5 31 9 68q5 45 5 85q0 98 -45 155q-44 56 -127 56q-87 0 -127 -56q-41 -58 -41 -155z" />
    <glyph glyph-name="uni06C0" unicode="&#x6c0;" horiz-adv-x="1171" arabic-form="isolated" 
d="M813 0q-153 0 -282 35t-221 106q-91 71 -145 181q-52 107 -52 253q0 125 47 231q47 105 137 182q92 78 220 121q132 44 296 44h41v102h287v-1255h-328zM854 287v579h-111q-65 0 -125 -19q-62 -20 -110 -56t-79 -92q-30 -54 -30 -124t28 -124t74 -91t105 -55
q60 -18 123 -18h125zM692 1470q0 140 69 197t189 57h123v-92h-106q-63 0 -86 -26q-25 -28 -25 -76v-55h283v-154h-447v149z" />
    <glyph glyph-name="uni06C1" unicode="&#x6c1;" horiz-adv-x="1171" arabic-form="isolated" 
d="M813 0q-153 0 -282 35t-221 106q-91 71 -145 181q-52 107 -52 253q0 125 47 231q47 105 137 182q92 78 220 121q132 44 296 44h41v102h287v-1255h-328zM854 287v579h-111q-65 0 -125 -19q-62 -20 -110 -56t-79 -92q-30 -54 -30 -124t28 -124t74 -91t105 -55
q60 -18 123 -18h125z" />
    <glyph glyph-name="uni06CC" unicode="&#x6cc;" horiz-adv-x="2138" arabic-form="isolated" 
d="M877 -256q-92 0 -167 9q-77 9 -139 30q-64 21 -115 52q-54 32 -100 77q-76 72 -106 185q-31 118 -31 239v448h287v-413q0 -94 19 -157t67 -105q53 -45 133 -62q77 -16 172 -16h299v577q0 147 42 255q41 107 134 181q71 55 172 82q100 27 219 27h387v-1153h-286v866h-131
q-57 0 -97 -11q-43 -12 -77 -40q-35 -29 -56 -82q-20 -50 -20 -106v-883h-606z" />
    <glyph glyph-name="uni06D2" unicode="&#x6d2;" horiz-adv-x="2019" arabic-form="isolated" 
d="M82 0v406q0 260 127 403q76 84 178 124q101 40 244 40h88q55 0 84 26q31 28 31 82v86h286v-100q0 -110 -26 -179q-27 -73 -77 -118q-49 -44 -122 -64q-74 -20 -162 -20h-135q-57 0 -102 -19q-48 -20 -76 -57q-27 -33 -40 -82q-11 -43 -11 -106v-135h1421v-287h-1708z" />
    <glyph glyph-name="uni06D3" unicode="&#x6d3;" horiz-adv-x="1861" arabic-form="isolated" 
d="M82 0v406q0 260 127 403q76 84 178 124q101 40 244 40h88q55 0 84 26q31 28 31 82v86h286v-100q0 -110 -26 -179q-27 -73 -77 -118q-49 -44 -122 -64q-74 -20 -162 -20h-135q-57 0 -102 -19q-48 -20 -76 -57q-27 -33 -40 -82q-11 -43 -11 -106v-135h1421v-287h-1708z
M293 1378q0 141 68 197q69 57 190 57h123v-92h-107q-62 0 -86 -27t-24 -75v-56h282v-153h-446v149z" />
    <glyph glyph-name="uni06D5.fina" unicode="&#x6d5;" horiz-adv-x="1288" 
d="M1329 287v-287h-516q-153 0 -282 35t-221 106q-91 71 -145 181q-52 107 -52 253q0 125 47 231q47 105 137 182q92 78 220 121q132 44 296 44h41v102h287v-968h188zM854 287v579h-111q-65 0 -125 -19q-62 -20 -110 -56t-79 -92q-30 -54 -30 -124t28 -124t74 -91t105 -55
q60 -18 123 -18h125z" />
    <glyph glyph-name="uniFB51" unicode="&#x671;" horiz-adv-x="786" arabic-form="final" 
d="M279 1413h286v-1126h262v-287h-548v1413zM143 1618h142q0 37 12 71q11 31 37 59q24 25 59 42q33 16 78 16q106 0 168 -55q63 -55 63 -166v-80h-559v113zM467 1714q-48 0 -69 -28t-21 -68h182q0 37 -22 66q-23 30 -70 30z" />
    <glyph glyph-name="uniFB57" unicode="&#x67e;" horiz-adv-x="1824" arabic-form="final" 
d="M762 0q-92 0 -167 9t-138 30q-66 22 -116 52q-51 31 -99 77q-78 73 -107 185q-31 118 -31 239v387h287v-352q0 -91 20 -157q19 -64 66 -105q53 -45 133 -62q77 -16 172 -16h574v866h286v-866h222v-287h-1102zM1202 -422q-60 0 -107 36q-46 36 -46 107q0 62 44 101
q43 39 109 39q68 0 112 -39t44 -101q0 -71 -46 -107t-110 -36zM768 -422q-62 0 -108 36t-46 107q0 62 44 101t110 39t111 -39t45 -101q0 -71 -47 -107q-46 -36 -109 -36zM985 -698q-54 0 -95 31q-42 31 -42 94q0 55 39 90q38 34 98 34t98 -34q39 -35 39 -90q0 -62 -41 -94
q-40 -31 -96 -31z" />
    <glyph glyph-name="uniFB58" unicode="&#x67e;" horiz-adv-x="868" arabic-form="initial" 
d="M246 -422q-62 0 -108 36t-46 107q0 62 44 101q43 39 110 39q65 0 110 -39t45 -101q0 -71 -47 -107q-46 -36 -108 -36zM463 -698q-54 0 -95 31q-42 31 -42 94q0 55 39 90q38 34 98 34t98 -34q39 -35 39 -90q0 -62 -41 -94q-40 -31 -96 -31zM680 -422q-62 0 -108 36
t-46 107q0 62 44 101t110 39q68 0 112 -39t44 -101q0 -71 -46 -107t-110 -36zM0 287h428v866h287v-1153h-715v287z" />
    <glyph glyph-name="uniFB59" unicode="&#x67e;" horiz-adv-x="1050" arabic-form="medial" 
d="M0 287h428v866h287v-866h377v-287h-1092v287zM780 -422q-60 0 -107 36q-46 36 -46 107q0 62 44 101q43 39 109 39q68 0 112 -39t44 -101q0 -71 -46 -107t-110 -36zM346 -422q-60 0 -107 36q-46 36 -46 107q0 62 44 101q43 39 109 39t111 -39t45 -101q0 -71 -47 -107
t-109 -36zM563 -698q-54 0 -95 31q-42 31 -42 94q0 55 39 90q38 34 98 34q61 0 99 -34t38 -90q0 -62 -41 -94q-40 -31 -96 -31z" />
    <glyph glyph-name="uniFB67" unicode="&#x679;" horiz-adv-x="1712" arabic-form="final" 
d="M762 0q-92 0 -167 9t-138 30q-66 22 -116 52q-51 31 -99 77q-78 73 -107 185q-31 118 -31 239v387h287v-352q0 -91 20 -157q19 -64 66 -105q53 -45 133 -62q77 -16 172 -16h574v866h286v-866h220v-287h-1100zM813 1415h105q105 0 167 -55q64 -56 64 -166v-80h-559v113
h102v303h121v-115zM813 1323v-96h193q0 35 -23 66q-23 30 -63 30h-107z" />
    <glyph glyph-name="uniFB68" unicode="&#x679;" horiz-adv-x="868" arabic-form="initial" 
d="M0 287h428v866h287v-1153h-715v287zM489 1622h105q106 0 168 -55q63 -55 63 -166v-80h-559v113h103v303h120v-115zM489 1530v-96h193q0 35 -23 66q-23 30 -63 30h-107z" />
    <glyph glyph-name="uniFB69" unicode="&#x679;" horiz-adv-x="993" arabic-form="medial" 
d="M0 287h428v866h287v-866h375v-287h-1090v287zM489 1622h105q106 0 168 -55q63 -55 63 -166v-80h-559v113h103v303h120v-115zM489 1530v-96h193q0 35 -23 66q-23 30 -63 30h-107z" />
    <glyph glyph-name="uniFB6B" unicode="&#x6a4;" horiz-adv-x="2224" arabic-form="final" 
d="M762 0q-92 0 -167 9t-138 30q-66 22 -116 52q-51 31 -99 77q-78 73 -107 185q-31 118 -31 239v387h287v-352q0 -91 20 -157q19 -64 66 -105q53 -45 133 -62q77 -16 172 -16h334q-46 61 -72 131q-26 69 -26 160q0 133 50 241q49 105 140 181q90 75 217 114q128 39 281 39
h338v-866h219v-287h-1501zM1305 578q0 -94 42 -168q43 -75 113 -123h297v579h-121q-61 0 -121 -18q-62 -19 -107 -55q-46 -37 -75 -92q-28 -53 -28 -123zM1870 1339q-62 0 -108 36t-46 108q0 63 44 102t110 39q68 0 111 -39q44 -39 44 -102q0 -72 -46 -108q-47 -36 -109 -36
zM1436 1339q-62 0 -108 36t-46 108q0 63 44 102t110 39q65 0 110 -39t45 -102q0 -72 -47 -108q-46 -36 -108 -36zM1653 1665q-52 0 -95 32q-42 31 -42 93q0 56 38 90q40 35 99 35q58 0 98 -35q39 -34 39 -90q0 -61 -41 -93t-96 -32z" />
    <glyph glyph-name="uniFB6C" unicode="&#x6a4;" horiz-adv-x="1294" arabic-form="initial" 
d="M0 287h274q-44 58 -71 131q-27 72 -27 160q0 133 50 241q48 104 141 181q90 75 217 114t280 39h338v-1153h-1202v287zM463 578q0 -94 42 -168t114 -123h296v579h-120q-62 0 -122 -18q-62 -19 -107 -55q-44 -36 -74 -92q-29 -55 -29 -123zM999 1339q-61 0 -107 36t-46 108
q0 63 44 102t109 39q69 0 112 -39q44 -39 44 -102q0 -72 -46 -108q-47 -36 -110 -36zM565 1339q-61 0 -107 36t-46 108q0 63 44 102q43 39 109 39t111 -39t45 -102q0 -72 -47 -108q-46 -36 -109 -36zM782 1665q-52 0 -95 32q-42 31 -42 93q0 56 39 90q40 35 98 35
q59 0 99 -35q39 -34 39 -90q0 -61 -41 -93t-97 -32z" />
    <glyph glyph-name="uniFB6D" unicode="&#x6a4;" horiz-adv-x="1349" arabic-form="medial" 
d="M0 287h274q-44 58 -71 131q-27 72 -27 160q0 133 50 241q48 104 141 181q90 75 217 114t280 39h338v-866h189v-287h-1391v287zM463 578q0 -94 42 -168t114 -123h296v579h-120q-62 0 -122 -18q-62 -19 -107 -55q-44 -36 -74 -92q-29 -55 -29 -123zM997 1339q-61 0 -107 36
t-46 108q0 63 44 102t109 39q69 0 112 -39q44 -39 44 -102q0 -72 -46 -108q-47 -36 -110 -36zM563 1339q-61 0 -107 36t-46 108q0 63 44 102t109 39q66 0 111 -39t45 -102q0 -72 -47 -108q-46 -36 -109 -36zM780 1665q-52 0 -95 32q-42 31 -42 93q0 56 39 90q40 35 98 35
q59 0 99 -35q39 -34 39 -90q0 -61 -41 -93t-97 -32z" />
    <glyph glyph-name="uniFB7B" unicode="&#x686;" horiz-adv-x="1204" arabic-form="final" 
d="M70 0q-7 21 -11 37q-5 17 -6 37q-2 28 -2 43q0 36 1 50q2 28 3 40q2 19 6 38q5 19 9 42h757q17 71 26 147q9 80 9 146t-23 132q-24 68 -77 115q-89 78 -242 78q-83 0 -149 -19q-68 -20 -148 -71l-119 250q103 58 211 92q113 35 240 35q125 0 230 -41t178 -117
q83 -83 133 -201q51 -120 51 -276q0 -74 -7 -137q-7 -59 -20 -133h113v-287h-1163zM827 -334q-61 0 -107 36t-46 108q0 61 44 100t109 39q69 0 112 -39q44 -39 44 -100q0 -72 -46 -108q-47 -36 -110 -36zM393 -334q-61 0 -107 36t-46 108q0 61 44 100t109 39q66 0 111 -39
t45 -100q0 -72 -47 -108q-46 -36 -109 -36zM610 -610q-54 0 -95 31q-42 31 -42 94q0 55 39 90q40 35 98 35q59 0 99 -35q39 -35 39 -90q0 -62 -41 -94q-40 -31 -97 -31z" />
    <glyph glyph-name="uniFB7C" unicode="&#x686;" horiz-adv-x="1191" arabic-form="initial" 
d="M0 287h850q17 71 26 147q9 80 9 146q0 63 -24 132q-24 68 -77 115q-88 78 -241 78q-84 0 -150 -19t-147 -71l-119 250q103 58 211 92q113 35 240 35q125 0 230 -41q104 -41 177 -117q83 -83 133 -201q51 -120 51 -276q0 -86 -10 -162q-13 -100 -24 -153q-18 -88 -32 -136
q-24 -82 -32 -106h-1071v287zM332 -334q-62 0 -108 36t-46 108q0 61 44 100t110 39q65 0 110 -39t45 -100q0 -72 -47 -108q-46 -36 -108 -36zM549 -610q-54 0 -95 31q-42 31 -42 94q0 55 39 90q40 35 98 35t98 -35q39 -35 39 -90q0 -62 -41 -94q-40 -31 -96 -31zM766 -334
q-62 0 -108 36t-46 108q0 61 44 100t110 39q68 0 112 -39t44 -100q0 -72 -46 -108q-47 -36 -110 -36z" />
    <glyph glyph-name="uniFB7D" unicode="&#x686;" horiz-adv-x="1263" arabic-form="medial" 
d="M0 287h850q17 71 26 147q9 80 9 146q0 63 -24 132q-24 68 -77 115q-88 78 -241 78q-84 0 -150 -19t-147 -71l-119 250q103 58 211 92q113 35 240 35q125 0 230 -41q104 -41 177 -117q83 -83 133 -201q51 -120 51 -276q0 -74 -7 -137q-8 -73 -19 -133h141v-287h-1284v287z
M766 -334q-62 0 -108 36t-46 108q0 61 44 100t110 39q68 0 112 -39t44 -100q0 -72 -46 -108q-47 -36 -110 -36zM332 -334q-62 0 -108 36t-46 108q0 61 44 100t110 39q65 0 110 -39t45 -100q0 -72 -47 -108q-46 -36 -108 -36zM549 -610q-54 0 -95 31q-42 31 -42 94
q0 55 39 90q40 35 98 35t98 -35q39 -35 39 -90q0 -62 -41 -94q-40 -31 -96 -31z" />
    <glyph glyph-name="uniFB89" unicode="&#x688;" horiz-adv-x="1191" arabic-form="final" 
d="M72 287h714v313q0 63 -13 108t-42 80q-29 37 -73 57q-47 21 -101 21h-123v287h94q139 0 244 -36q104 -36 182 -118q66 -69 93 -177q26 -104 26 -234v-301h225v-287h-1226v287zM489 1622h105q106 0 168 -55q63 -55 63 -166v-80h-559v113h103v303h120v-115zM489 1530v-96
h193q0 35 -23 66q-23 30 -63 30h-107z" />
    <glyph glyph-name="uniFB8B" unicode="&#x698;" horiz-adv-x="823" arabic-form="final" 
d="M229 -451q-27 0 -79 6q-33 4 -66 13l-21 287q38 -10 72 -15q27 -4 64 -4q84 0 119 47q34 46 34 154v1116h287v-866h225v-287h-227q-12 -236 -109 -344q-96 -107 -299 -107zM715 1339q-61 0 -108 36q-46 36 -46 108q0 63 44 102t110 39q67 0 111 -39t44 -102
q0 -72 -46 -108t-109 -36zM281 1339q-61 0 -108 36q-46 36 -46 108q0 63 44 102t110 39q65 0 110 -39t45 -102q0 -72 -47 -108t-108 -36zM498 1665q-53 0 -96 32q-42 31 -42 93q0 56 39 90q40 35 99 35q58 0 98 -35q39 -34 39 -90q0 -61 -41 -93t-96 -32z" />
    <glyph glyph-name="uniFB8D" unicode="&#x691;" horiz-adv-x="821" arabic-form="final" 
d="M227 -451q-28 0 -80 6q-31 4 -65 13l-21 287q38 -10 72 -15q27 -4 64 -4q84 0 119 47q34 46 34 154v1116h287v-866h225v-287h-227q-12 -236 -109 -344q-96 -107 -299 -107zM440 1622h105q106 0 168 -55q63 -55 63 -166v-80h-559v113h102v303h121v-115zM440 1530v-96h193
q0 35 -23 66q-22 30 -63 30h-107z" />
    <glyph glyph-name="uniFB8F" unicode="&#x6a9;" horiz-adv-x="2076" arabic-form="final" 
d="M762 0q-181 0 -302 44q-118 43 -208 130q-76 73 -112 184t-36 238v385h287v-350q0 -178 96 -256q54 -46 130 -67q77 -21 167 -21h940v237q0 56 -10 96q-10 41 -39 76q-31 38 -74 57q-47 21 -98 21h-631q-40 52 -68 123q-28 70 -32 164l313 600h345l-334 -600h366
q130 0 229 -35q98 -35 171 -106q149 -143 149 -428v-205h221v-287h-1470z" />
    <glyph glyph-name="uniFB90" unicode="&#x6a9;" horiz-adv-x="1671" arabic-form="initial" 
d="M0 287h1276v219q0 62 -13 107q-13 47 -42 81q-29 36 -73 58q-45 22 -101 22h-857q-39 50 -66 122q-28 72 -32 163l332 602h307l-317 -602h604q139 0 244 -36q104 -36 182 -118q65 -68 92 -177q27 -108 27 -234v-494h-1563v287z" />
    <glyph glyph-name="uniFB91" unicode="&#x6a9;" horiz-adv-x="1742" arabic-form="medial" 
d="M0 287h1276v219q0 62 -13 107q-13 47 -42 81q-29 36 -73 58q-45 22 -101 22h-857q-39 50 -66 122q-28 72 -32 163l332 602h307l-317 -602h604q139 0 244 -36q104 -36 182 -118q65 -68 92 -177q27 -108 27 -234v-207h219v-287h-1782v287z" />
    <glyph glyph-name="uniFB93" unicode="&#x6af;" horiz-adv-x="2076" arabic-form="final" 
d="M2232 0v287h-221v205q0 285 -149 428q-73 71 -171 106q-99 35 -229 35h-366l334 600h-345l-313 -600q4 -94 32 -164q28 -71 68 -123h631q51 0 98 -21q43 -19 74 -57q29 -35 39 -76q10 -40 10 -96v-237h-940q-90 0 -167 21q-76 21 -130 67q-96 78 -96 256v350h-287v-385
q0 -127 36 -238t112 -184q90 -87 208 -130q121 -44 302 -44h1470zM662 1061h-175l299 602h175z" />
    <glyph glyph-name="uniFB94" unicode="&#x6af;" horiz-adv-x="1763" arabic-form="initial" 
d="M178 1061h-174l299 602h174zM0 0h1726v494q0 130 -26 234q-27 109 -92 177q-77 82 -183 118q-105 36 -243 36h-604l317 602h-307l-332 -602q4 -91 32 -163q27 -72 66 -122h856q57 0 102 -22q43 -21 72 -58q28 -34 42 -81q14 -48 14 -107v-219h-1440v-287z" />
    <glyph glyph-name="uniFB95" unicode="&#x6af;" horiz-adv-x="1863" arabic-form="medial" 
d="M0 0h1948v287h-222v207q0 130 -26 234q-27 109 -92 177q-77 82 -183 118q-105 36 -243 36h-604l317 602h-307l-332 -602q4 -91 32 -163q27 -72 66 -122h856q57 0 102 -22q43 -21 72 -58q28 -34 42 -81q14 -48 14 -107v-219h-1440v-287zM180 1061h-174l299 602h174z" />
    <glyph glyph-name="uniFB9F" unicode="&#x6ba;" horiz-adv-x="1423" arabic-form="final" 
d="M770 -256q-92 0 -167 9t-138 30q-66 22 -116 52q-51 31 -99 77q-78 73 -107 185q-30 114 -30 239v670h286v-635q0 -91 20 -157q19 -64 66 -105q53 -45 133 -62q77 -16 173 -16h163v975h287v-719h221v-287h-221v-256h-471z" />
    <glyph glyph-name="uniFBA5" unicode="&#x6c0;" horiz-adv-x="1288" arabic-form="final" 
d="M813 0q-153 0 -282 35t-221 106q-91 71 -145 181q-52 107 -52 253q0 125 47 231q47 105 137 182q92 78 220 121q132 44 296 44h41v102h287v-968h188v-287h-516zM854 287v579h-111q-65 0 -125 -19q-62 -20 -110 -56t-79 -92q-30 -54 -30 -124t28 -124t74 -91t105 -55
q60 -18 123 -18h125zM698 1470q0 140 69 197t189 57h123v-92h-106q-63 0 -86 -26q-25 -28 -25 -76v-55h283v-154h-447v149z" />
    <glyph glyph-name="uniFBA7" unicode="&#x6c1;" horiz-adv-x="1212" arabic-form="final" 
d="M760 0v868h-129q-56 0 -96 -11q-44 -12 -78 -40q-35 -29 -56 -74q-20 -43 -20 -98v-342h-287v303q0 151 43 256q43 106 135 180q74 59 171 85q103 28 219 28h385v-868h206v-287h-493z" />
    <glyph glyph-name="uniFBA8" unicode="&#x6c1;" horiz-adv-x="663" arabic-form="initial" 
d="M131 -451l107 359l301 -14l-199 -357zM0 287h254v866h287v-1153h-541v287z" />
    <glyph glyph-name="uniFBA9" unicode="&#x6c1;" horiz-adv-x="1712" arabic-form="medial" 
d="M1223 -451l106 357h301l-198 -357h-209zM748 -451q-117 0 -228 25q-103 23 -178 78q-67 52 -110 129q-44 79 -44 176v43h-188v287h188v555h287v-844q0 -51 22 -98q21 -45 56 -74q66 -51 170 -51h92v512h938v-287h-651v-451h-354z" />
    <glyph glyph-name="uniFBAB" unicode="&#x6be;" horiz-adv-x="1820" arabic-form="final" 
d="M174 287h234q-10 47 -13 68q-6 41 -6 79q0 229 113 351t311 122q93 0 171 -34q80 -35 136 -95q58 -63 89 -148q32 -88 32 -194q0 -35 -5 -80q-4 -35 -11 -69h186q7 53 12 102q4 44 4 92q0 124 -25 217q-26 96 -81 181q-69 104 -183 157q-117 54 -288 54q-131 0 -241 -43
q-106 -42 -193 -89l-97 261q140 69 295 114q156 45 310 45q112 0 206 -24q95 -24 172 -68q81 -46 137 -102q63 -63 107 -127q86 -126 127 -282q41 -158 41 -343q0 -68 -12 -145h217v-287h-1745v287zM645 440q0 -40 5 -85q4 -37 9 -68h312q5 31 9 68q5 45 5 85q0 98 -45 155
q-44 56 -127 56q-87 0 -127 -56q-41 -58 -41 -155z" />
    <glyph glyph-name="uniFBAC" unicode="&#x6be;" horiz-adv-x="1568" arabic-form="initial" 
d="M0 287h233q-7 31 -12 68q-6 41 -6 79q0 229 113 351t311 122q93 0 171 -34q80 -35 136 -95q58 -63 89 -148q32 -88 32 -194q0 -35 -5 -80q-4 -35 -11 -69h186q7 53 12 102q4 44 4 92q0 124 -25 217q-26 96 -81 181q-69 104 -183 157q-117 54 -288 54q-131 0 -241 -43
q-106 -42 -193 -89l-97 261q140 69 295 114q156 45 310 45q112 0 206 -24q93 -24 171 -68q83 -47 138 -102q63 -63 107 -127q86 -126 127 -282q41 -158 41 -343q0 -55 -7 -108q-10 -79 -17 -115q-11 -61 -24 -112q-14 -57 -28 -97h-1464v287zM471 440q0 -40 5 -85
q4 -37 9 -68h312q5 31 9 68q5 45 5 85q0 98 -45 155q-44 56 -127 56q-87 0 -127 -56q-41 -58 -41 -155z" />
    <glyph glyph-name="uniFBAD" unicode="&#x6be;" horiz-adv-x="1646" arabic-form="medial" 
d="M0 287h233q-7 31 -12 68q-6 41 -6 79q0 229 113 351t311 122q93 0 171 -34q80 -35 136 -95q58 -63 89 -148q32 -88 32 -194q0 -35 -5 -80q-4 -35 -11 -69h186q7 53 12 102q4 44 4 92q0 124 -25 217q-26 96 -81 181q-69 104 -183 157q-117 54 -288 54q-131 0 -241 -43
q-106 -42 -193 -89l-97 261q140 69 295 114q156 45 310 45q112 0 206 -24q93 -24 171 -68q83 -47 138 -102q63 -63 107 -127q86 -126 127 -282q41 -158 41 -343q0 -68 -12 -145h219v-287h-1747v287zM471 440q0 -40 5 -85q4 -37 9 -68h312q5 31 9 68q5 45 5 85q0 98 -45 155
q-44 56 -127 56q-87 0 -127 -56q-41 -58 -41 -155z" />
    <glyph glyph-name="uniFBAF" unicode="&#x6d2;" horiz-adv-x="1601" arabic-form="final" 
d="M1640 0h-1234q0 -44 12 -84q12 -42 51 -70q25 -19 68 -36q37 -15 96 -15h608v-246h-633q-141 0 -244 39q-105 40 -178 123q-63 72 -90 175q-26 100 -26 233v168h1570v-287z" />
    <glyph glyph-name="uniFBB1" unicode="&#x6d3;" horiz-adv-x="1341" arabic-form="final" 
d="M1640 0h-1234q0 -44 12 -84q12 -42 51 -70q25 -19 68 -36q37 -15 96 -15h608v-246h-633q-141 0 -244 39q-105 40 -178 123q-63 72 -90 175q-26 100 -26 233v168h1570v-287zM57 592q0 139 69 196q70 58 189 58h123v-92h-106q-62 0 -86 -27q-25 -28 -25 -76v-55h283v-154
h-447v150z" />
    <glyph glyph-name="uniFBE8" unicode="&#x649;" horiz-adv-x="663" arabic-form="initial" 
d="M0 287h254v866h287v-1153h-541v287z" />
    <glyph glyph-name="uniFBE9" unicode="&#x649;" horiz-adv-x="720" arabic-form="medial" 
d="M0 287h254v866h287v-866h219v-287h-760v287z" />
    <glyph glyph-name="uniFBFD" unicode="&#x6cc;" horiz-adv-x="2217" arabic-form="final" 
d="M877 -256q-92 0 -167 9q-77 9 -139 30q-64 21 -115 52q-54 32 -100 77q-76 72 -106 185q-31 118 -31 239v448h287v-413q0 -94 19 -157t67 -105q53 -45 133 -62q77 -16 172 -16h299v577q0 147 42 255q41 107 134 181q71 55 172 82q100 27 219 27h387v-866h222v-287h-508
v866h-131q-57 0 -97 -11q-43 -12 -77 -40q-35 -29 -56 -82q-20 -50 -20 -106v-883h-606z" />
    <glyph glyph-name="uniFBFE" unicode="&#x6cc;" horiz-adv-x="872" arabic-form="initial" 
d="M229 -436q-66 0 -112 37q-47 38 -47 108q0 67 46 107q47 41 113 41q67 0 114 -41q46 -40 46 -107q0 -70 -47 -108q-46 -37 -113 -37zM674 -436q-67 0 -113 37q-47 38 -47 108q0 67 46 107q47 41 114 41q68 0 114 -41t46 -107q0 -69 -48 -108q-46 -37 -112 -37zM2 287h428
v866h287v-1153h-715v287z" />
    <glyph glyph-name="uniFBFF" unicode="&#x6cc;" horiz-adv-x="1050" arabic-form="medial" 
d="M0 287h428v866h287v-866h377v-287h-1092v287zM778 -436q-66 0 -112 37q-48 39 -48 108q0 66 47 107t113 41q69 0 115 -41q45 -40 45 -107q0 -70 -47 -108q-46 -37 -113 -37zM334 -436q-67 0 -113 37q-47 38 -47 108q0 67 46 107q47 41 114 41q66 0 113 -41t47 -107
q0 -69 -48 -108q-46 -37 -112 -37z" />
    <glyph glyph-name="uniFC5E" unicode="&#xfc5e;" arabic-form="isolated" 
d="M-309 557l96 39l51 -143l96 14q-12 30 -12 63q0 69 40 122q41 55 130 55q68 0 110 -47q42 -46 42 -119q0 -18 -2 -58q-1 -16 -11 -71l-456 -72zM-80 0q-52 0 -92 30t-55 101l-23 115l100 20l21 -110q7 -32 24 -46q15 -12 33 -12q28 0 45 22t17 62q0 24 -4 48t-11 59
l103 14l20 -110q11 -52 56 -52q57 0 57 60q0 26 -6 61q-6 33 -23 74l103 22q5 -28 12 -59l8 -47q4 -21 4 -41q0 -82 -43 -124q-44 -42 -121 -42q-28 0 -52 15q-23 14 -36 34q-16 -37 -50 -65q-35 -29 -87 -29zM12 537q0 -30 8 -56l123 21q2 10 2 33q0 30 -16 50
q-17 21 -51 21q-26 0 -46 -18t-20 -51z" />
    <glyph glyph-name="uniFC5F" unicode="&#xfc5f;" arabic-form="isolated" 
d="M-111 330q-53 0 -92 29q-40 30 -55 102l-23 114l101 21l20 -111q7 -32 24 -46q14 -11 34 -11q28 0 45 22q16 20 16 62q0 24 -4 48q-8 48 -10 58l102 15l21 -111q10 -51 55 -51q57 0 57 59q0 28 -6 62q-6 37 -22 74l102 22q5 -28 12 -59l8 -47q5 -27 5 -41q0 -82 -43 -124
q-44 -42 -121 -42q-29 0 -53 15q-21 13 -35 34q-17 -38 -51 -66t-87 -28zM-174 96l459 66v-96l-459 -66v96zM-176 264l459 66v-97l-459 -65v96z" />
    <glyph glyph-name="uniFC60" unicode="&#xfc60;" arabic-form="isolated" 
d="M-106 0q-52 0 -93 30q-40 30 -55 101l-22 115l100 20l20 -110q7 -32 24 -46q15 -12 34 -12q28 0 45 22q16 20 16 62q0 24 -4 48q-9 54 -10 59l102 14l21 -110q11 -52 55 -52q57 0 57 60q0 26 -6 61q-6 37 -22 74l102 22q5 -28 12 -59l9 -47q4 -21 4 -41q0 -82 -43 -124
t-121 -42q-28 0 -52 15q-23 14 -36 34q-16 -37 -50 -65q-35 -29 -87 -29zM-256 504l459 65v-102l-459 -66v103z" />
    <glyph glyph-name="uniFC61" unicode="&#xfc61;" arabic-form="isolated" 
d="M-248 457l162 26q-12 30 -12 64q0 68 39 122t129 54q69 0 111 -46q42 -47 42 -120q0 -17 -2 -57q-1 -25 -10 -72l-449 -68zM-106 0q-52 0 -93 30q-40 30 -55 101l-22 115l100 20l20 -110q7 -32 24 -46q15 -12 34 -12q28 0 45 22q16 20 16 62q0 24 -4 48q-9 54 -10 59
l102 14l21 -110q11 -52 55 -52q57 0 57 60q0 26 -6 61q-6 37 -22 74l102 22q5 -28 12 -59l9 -47q4 -21 4 -41q0 -82 -43 -124t-121 -42q-28 0 -52 15q-23 14 -36 34q-16 -37 -50 -65q-35 -29 -87 -29zM-10 553q0 -31 8 -55l123 20q4 15 4 33q0 30 -16 50q-17 22 -52 22
q-27 0 -48 -19q-19 -18 -19 -51z" />
    <glyph glyph-name="uniFC62" unicode="&#xfc62;" arabic-form="isolated" 
d="M-109 186q-51 0 -92 30q-40 30 -55 101l-23 115l101 21l20 -111q7 -32 24 -46q14 -11 34 -11q28 0 45 21q16 20 16 63q0 24 -4 48q-8 48 -10 58l102 14l21 -110q10 -51 55 -51q57 0 57 59q0 27 -6 62q-6 36 -22 73l102 23q6 -33 12 -60l8 -47q5 -27 5 -41q0 -82 -43 -124
q-44 -42 -121 -42q-26 0 -52 16q-23 14 -36 34q-17 -37 -51 -66q-35 -29 -87 -29zM-176 102l459 66v-102l-459 -66v102z" />
    <glyph glyph-name="uniFC63" unicode="&#xfc63;" arabic-form="isolated" 
d="M-106 0q-52 0 -93 30q-40 30 -55 101l-22 115l100 20l20 -110q7 -32 24 -46q15 -12 34 -12q28 0 45 22q16 20 16 62q0 24 -4 48q-9 54 -10 59l102 14l21 -110q11 -52 55 -52q57 0 57 60q0 26 -6 61q-6 37 -22 74l102 22q5 -28 12 -59l9 -47q4 -21 4 -41q0 -82 -43 -124
t-121 -42q-28 0 -52 15q-23 14 -36 34q-16 -37 -50 -65q-35 -29 -87 -29zM-74 807h115v-381l-115 -16v397z" />
    <glyph glyph-name="uniFE70" unicode="&#xfe70;" arabic-form="isolated" 
d="M-33 1571l459 65v-96l-459 -65v96zM-35 1739l459 65v-96l-459 -66v97z" />
    <glyph glyph-name="uniFE72" unicode="&#xfe72;" arabic-form="isolated" 
d="M-55 1671l96 39l51 -143l96 14q-12 30 -12 64q0 68 40 121q41 55 130 55q68 0 110 -46q42 -47 42 -120q0 -18 -2 -58q-1 -16 -11 -71l-456 -72zM266 1651q0 -30 8 -56l123 21q2 10 2 33q0 30 -16 50q-17 21 -51 21q-26 0 -46 -18t-20 -51z" />
    <glyph glyph-name="uniFE74" unicode="&#xfe74;" arabic-form="isolated" 
d="M-33 -367l459 66v-96l-459 -66v96zM-35 -199l459 66v-96l-459 -66v96z" />
    <glyph glyph-name="uniFE76" unicode="&#xfe76;" arabic-form="isolated" 
d="M-23 1526l459 65v-102l-459 -66v103z" />
    <glyph glyph-name="uniFE78" unicode="&#xfe78;" arabic-form="isolated" 
d="M-37 1554l162 27q-12 30 -12 64q0 67 39 121q40 55 129 55q69 0 111 -46q42 -47 42 -120q0 -18 -2 -58q-1 -23 -10 -71l-449 -68zM201 1651q0 -32 8 -56l123 21q4 15 4 33q0 28 -17 50q-17 21 -51 21q-28 0 -48 -18q-19 -18 -19 -51z" />
    <glyph glyph-name="uniFE7A" unicode="&#xfe7a;" arabic-form="isolated" 
d="M-23 -360l459 65v-102l-459 -66v103z" />
    <glyph glyph-name="uniFE7C" unicode="&#xfe7c;" arabic-form="isolated" 
d="M88 1430q-53 0 -92 29q-40 30 -55 102l-23 114l100 21l21 -111q7 -33 23 -46q14 -11 34 -11q28 0 45 21q17 22 17 63q0 24 -4 48q-3 18 -11 58l103 15l20 -111q10 -51 56 -51q57 0 57 59q0 28 -6 62q-6 32 -23 73l103 23q5 -27 12 -59l8 -48q4 -21 4 -41q0 -81 -43 -123
q-44 -42 -121 -42q-28 0 -52 15q-23 14 -36 34q-17 -39 -50 -66q-34 -28 -87 -28z" />
    <glyph glyph-name="uniFE7E" unicode="&#xfe7e;" arabic-form="isolated" 
d="M131 1436q-77 0 -120 43q-44 44 -44 139q0 88 49 137t127 49q80 0 124 -50t44 -136t-51 -134t-129 -48zM137 1532q29 0 52 16q24 16 24 68q0 47 -23 68q-24 22 -53 22q-23 0 -47 -18t-24 -68q0 -56 21 -72q20 -16 50 -16z" />
    <glyph glyph-name="uniFE82" unicode="&#x622;" horiz-adv-x="788" arabic-form="final" 
d="M281 1413h286v-1126h262v-287h-548v1413zM143 1638h559v-133h-559v133z" />
    <glyph glyph-name="uniFE84" unicode="&#x623;" horiz-adv-x="804" arabic-form="final" 
d="M225 1599q0 140 69 197t189 57h103v-92h-86q-63 0 -86 -26q-25 -28 -25 -76h262v-154h-426v94zM297 1413h287v-1126h262v-287h-549v1413z" />
    <glyph glyph-name="uniFE86" unicode="&#x624;" horiz-adv-x="1288" arabic-form="final" 
d="M1137 287h190v-287h-194q-7 -95 -39 -183q-29 -81 -93 -143q-60 -59 -157 -92q-96 -33 -234 -33q-29 0 -75 4q-35 3 -69 9q-8 1 -71 14l-84 23l-20 288q85 -27 155 -39q72 -12 144 -12q54 0 104 5q45 4 77 23t51 50q20 34 26 86h-33q-147 0 -275 33q-131 34 -224 102
q-95 69 -149 179t-54 264q0 136 52 241q53 107 145 180q93 73 222 114q127 40 283 40h324zM399 578q0 -71 26 -126q26 -54 71 -92q44 -37 105 -55q60 -18 130 -18h121v579h-121q-67 0 -124 -20q-58 -20 -106 -59q-46 -37 -74 -91t-28 -118zM707 1462q0 141 68 197
q69 57 190 57h122v-92h-106q-62 0 -86 -27q-25 -28 -25 -75v-56h283v-153h-446v149z" />
    <glyph glyph-name="uniFE88" unicode="&#x625;" horiz-adv-x="796" arabic-form="final" 
d="M483 -449q-119 0 -189 58q-69 57 -69 196v95h426v-154h-262q0 -48 25 -76q23 -26 86 -26h86v-93h-103zM289 1661h286v-1374h263v-287h-549v1661z" />
    <glyph glyph-name="uniFE8A" unicode="&#x626;" horiz-adv-x="2275" arabic-form="final" 
d="M821 -256q-92 0 -167 9t-138 30q-66 22 -116 52q-51 31 -99 77q-76 72 -106 185q-31 118 -31 239v448h287v-413q0 -94 19 -157t67 -105q53 -45 133 -62q77 -16 172 -16h299v577q0 147 42 255q41 107 134 181q71 55 172 82t219 27h387v-866h219v-287h-506v866h-131
q-56 0 -96 -11q-44 -12 -78 -40q-33 -27 -55 -82q-21 -52 -21 -106v-883h-606zM84 1079q0 140 69 197t189 57h123v-92h-107q-62 0 -86 -27t-24 -75v-56h282v-153h-446v149z" />
    <glyph glyph-name="uniFE8B" unicode="&#x626;" horiz-adv-x="663" arabic-form="initial" 
d="M168 1460q0 140 69 197t189 57h123v-92h-107q-62 0 -86 -27t-24 -75v-56h282v-153h-446v149zM0 287h254v866h287v-1153h-541v287z" />
    <glyph glyph-name="uniFE8C" unicode="&#x626;" horiz-adv-x="720" arabic-form="medial" 
d="M0 287h254v866h287v-866h219v-287h-760v287zM164 1460q0 141 68 197q69 57 190 57h123v-92h-107q-62 0 -86 -27t-24 -75v-56h282v-153h-446v149z" />
    <glyph glyph-name="uniFE8E" unicode="&#x627;" horiz-adv-x="774" arabic-form="final" 
d="M266 1661h287v-1374h262v-287h-549v1661z" />
    <glyph glyph-name="uniFE90" unicode="&#x628;" horiz-adv-x="1824" arabic-form="final" 
d="M762 0q-92 0 -167 9t-138 30q-66 22 -116 52q-51 31 -99 77q-78 73 -107 185q-31 118 -31 239v387h287v-352q0 -91 20 -157q19 -64 66 -105q53 -45 133 -62q77 -16 172 -16h574v866h286v-866h222v-287h-1102zM981 -436q-69 0 -118 39q-50 39 -50 114q0 68 48 110t120 42
t120 -42t48 -110q0 -75 -50 -114q-49 -39 -118 -39z" />
    <glyph glyph-name="uniFE91" unicode="&#x628;" horiz-adv-x="663" arabic-form="initial" 
d="M401 -436q-67 0 -117 39q-51 40 -51 114q0 67 49 110q48 42 119 42q72 0 120 -42t48 -110q0 -75 -50 -114q-49 -39 -118 -39zM0 287h254v866h287v-1153h-541v287z" />
    <glyph glyph-name="uniFE92" unicode="&#x628;" horiz-adv-x="720" arabic-form="medial" 
d="M0 287h254v866h287v-866h219v-287h-760v287zM397 -436q-67 0 -117 39q-51 40 -51 114q0 67 49 110q48 42 119 42q72 0 120 -42t48 -110q0 -75 -50 -114q-49 -39 -118 -39z" />
    <glyph glyph-name="uniFE94" unicode="&#x629;" horiz-adv-x="1290" arabic-form="final" 
d="M1329 287v-287h-516q-153 0 -282 35t-221 106q-91 71 -145 181q-52 107 -52 253q0 125 47 231q47 105 137 182q92 78 220 121q132 44 296 44h41v102h287v-968h188zM854 287v579h-111q-65 0 -125 -19q-62 -20 -110 -56t-79 -92q-30 -54 -30 -124t28 -124t74 -91t105 -55
q60 -18 123 -18h125zM969 1407q-66 0 -113 38t-47 109q0 66 46 106t114 40q70 0 114 -40q45 -41 45 -106q0 -71 -47 -109t-112 -38zM524 1407q-65 0 -112 38t-47 109q0 66 46 106t113 40q68 0 114 -40t46 -106q0 -71 -47 -109t-113 -38z" />
    <glyph glyph-name="uniFE96" unicode="&#x62a;" horiz-adv-x="1824" arabic-form="final" 
d="M762 0q-92 0 -167 9t-138 30q-66 22 -116 52q-51 31 -99 77q-78 73 -107 185q-31 118 -31 239v387h287v-352q0 -91 20 -157q19 -64 66 -105q53 -45 133 -62q77 -16 172 -16h574v866h286v-866h222v-287h-1102zM1120 1219q-66 0 -112 37q-47 38 -47 110q0 65 46 105t113 40
q71 0 115 -40q45 -41 45 -105q0 -72 -47 -110q-46 -37 -113 -37zM676 1219q-67 0 -113 37q-47 38 -47 110q0 65 46 105t114 40t114 -40t46 -105q0 -71 -48 -110q-46 -37 -112 -37z" />
    <glyph glyph-name="uniFE97" unicode="&#x62a;" horiz-adv-x="868" arabic-form="initial" 
d="M0 287h428v866h287v-1153h-715v287zM338 1327q-66 0 -113 38t-47 110q0 65 46 105t114 40t114 -40t46 -105q0 -72 -47 -110t-113 -38zM782 1327q-65 0 -112 38t-47 110q0 65 46 105t113 40q71 0 115 -40q45 -40 45 -105q0 -72 -47 -110t-113 -38z" />
    <glyph glyph-name="uniFE98" unicode="&#x62a;" horiz-adv-x="1050" arabic-form="medial" 
d="M0 287h428v866h287v-866h377v-287h-1092v287zM780 1327q-65 0 -112 38t-47 110q0 65 46 105t113 40q71 0 115 -40q45 -40 45 -105q0 -72 -47 -110t-113 -38zM336 1327q-66 0 -113 38t-47 110q0 65 46 105t114 40t114 -40t46 -105q0 -72 -47 -110t-113 -38z" />
    <glyph glyph-name="uniFE9A" unicode="&#x62b;" horiz-adv-x="1824" arabic-form="final" 
d="M762 0q-92 0 -167 9t-138 30q-66 22 -116 52q-51 31 -99 77q-78 73 -107 185q-31 118 -31 239v387h287v-352q0 -91 20 -157q19 -64 66 -105q53 -45 133 -62q77 -16 172 -16h574v866h286v-866h222v-287h-1102zM1118 1231q-60 0 -107 36q-46 36 -46 107q0 64 44 103
q43 39 109 39q68 0 112 -39t44 -103q0 -71 -46 -107t-110 -36zM684 1231q-60 0 -107 36t-47 107q0 64 44 103t110 39t111 -39t45 -103q0 -71 -47 -107t-109 -36zM901 1556q-52 0 -95 32q-42 32 -42 93q0 57 39 91q38 34 98 34t98 -34q39 -34 39 -91q0 -61 -41 -93t-96 -32z
" />
    <glyph glyph-name="uniFE9B" unicode="&#x62b;" horiz-adv-x="868" arabic-form="initial" 
d="M332 1339q-62 0 -108 36t-46 108q0 63 44 102t110 39q65 0 110 -39t45 -102q0 -72 -47 -108q-46 -36 -108 -36zM549 1665q-52 0 -95 32q-42 31 -42 93q0 56 39 90q40 35 98 35t98 -35q39 -34 39 -90q0 -61 -41 -93t-96 -32zM766 1339q-62 0 -108 36t-46 108q0 63 44 102
t110 39q68 0 112 -39t44 -102q0 -72 -46 -108q-47 -36 -110 -36zM0 287h428v866h287v-1153h-715v287z" />
    <glyph glyph-name="uniFE9C" unicode="&#x62b;" horiz-adv-x="1050" arabic-form="medial" 
d="M0 287h428v866h287v-866h377v-287h-1092v287zM768 1339q-62 0 -108 36t-46 108q0 63 44 102t110 39q68 0 112 -39t44 -102q0 -72 -46 -108t-110 -36zM334 1339q-62 0 -108 36t-46 108q0 63 44 102q43 39 110 39q65 0 110 -39t45 -102q0 -72 -47 -108q-46 -36 -108 -36z
M551 1665q-52 0 -95 32q-42 31 -42 93q0 56 39 90q40 35 98 35t98 -35q39 -34 39 -90q0 -61 -41 -93t-96 -32z" />
    <glyph glyph-name="uniFE9E" unicode="&#x62c;" horiz-adv-x="1284" arabic-form="final" 
d="M215 -451q-76 107 -120 237q-44 129 -44 294q0 110 19 207h757q17 71 26 147q9 80 9 146t-23 132q-24 68 -77 115q-89 78 -242 78q-83 0 -149 -19q-68 -20 -148 -71l-119 250q103 58 211 92q113 35 240 35q125 0 230 -41t178 -117q83 -83 133 -201q51 -120 51 -276
q0 -74 -7 -137q-7 -59 -20 -133h203v-287h-981v-31q0 -73 23 -151q22 -76 73 -164zM770 -436q-68 0 -118 39t-50 114q0 68 48 110t120 42t120 -42t48 -110q0 -75 -50 -114t-118 -39z" />
    <glyph glyph-name="uniFE9F" unicode="&#x62c;" horiz-adv-x="1263" arabic-form="initial" 
d="M0 287h850q17 71 26 147q9 80 9 146q0 63 -24 132q-24 68 -77 115q-88 78 -241 78q-84 0 -150 -19t-147 -71l-119 250q103 58 211 92q113 35 240 35q125 0 230 -41q104 -41 177 -117q83 -83 133 -201q51 -120 51 -276q0 -86 -10 -162q-13 -100 -24 -153q-18 -88 -32 -136
q-24 -82 -32 -106h-1071v287zM561 -436q-69 0 -118 39q-50 39 -50 114q0 68 48 110t120 42t120 -42t48 -110q0 -75 -50 -114q-49 -39 -118 -39z" />
    <glyph glyph-name="uniFEA0" unicode="&#x62c;" horiz-adv-x="1325" arabic-form="medial" 
d="M0 287h850q17 71 26 147q9 80 9 146q0 63 -24 132q-24 68 -77 115q-88 78 -241 78q-84 0 -150 -19t-147 -71l-119 250q103 58 211 92q113 35 240 35q125 0 230 -41q104 -41 177 -117q83 -83 133 -201q51 -120 51 -276q0 -74 -7 -137q-8 -73 -19 -133h221v-287h-1364v287z
M561 -436q-69 0 -118 39q-50 39 -50 114q0 68 48 110t120 42t120 -42t48 -110q0 -75 -50 -114q-49 -39 -118 -39z" />
    <glyph glyph-name="uniFEA2" unicode="&#x62d;" horiz-adv-x="1284" arabic-form="final" 
d="M342 -31q0 -73 23 -151q22 -76 73 -164l-223 -105q-76 107 -120 237q-44 129 -44 294q0 110 19 207h757q17 71 26 147q9 80 9 146t-23 132q-24 68 -77 115q-89 78 -242 78q-83 0 -149 -19q-68 -20 -148 -71l-119 250q103 58 211 92q113 35 240 35q125 0 230 -41t178 -117
q83 -83 133 -201q51 -120 51 -276q0 -74 -7 -137q-7 -59 -20 -133h203v-287h-981v-31z" />
    <glyph glyph-name="uniFEA3" unicode="&#x62d;" horiz-adv-x="1263" arabic-form="initial" 
d="M0 287h850q17 71 26 147q9 80 9 146q0 63 -24 132q-24 68 -77 115q-88 78 -241 78q-84 0 -150 -19t-147 -71l-119 250q103 58 211 92q113 35 240 35q125 0 230 -41q104 -41 177 -117q83 -83 133 -201q51 -120 51 -276q0 -86 -10 -162q-13 -100 -24 -153q-18 -88 -32 -136
q-24 -82 -32 -106h-1071v287z" />
    <glyph glyph-name="uniFEA4" unicode="&#x62d;" horiz-adv-x="1325" arabic-form="medial" 
d="M0 287h850q17 71 26 147q9 80 9 146q0 63 -24 132q-24 68 -77 115q-88 78 -241 78q-84 0 -150 -19t-147 -71l-119 250q103 58 211 92q113 35 240 35q125 0 230 -41q104 -41 177 -117q83 -83 133 -201q51 -120 51 -276q0 -74 -7 -137q-8 -73 -19 -133h221v-287h-1364v287z
" />
    <glyph glyph-name="uniFEA6" unicode="&#x62e;" horiz-adv-x="1232" arabic-form="final" 
d="M293 -31q0 -76 22 -151q21 -73 74 -164l-223 -105q-76 107 -120 237q-44 129 -44 294q0 116 18 207h758q17 71 26 147q9 80 9 146t-23 132q-24 68 -77 115q-88 78 -242 78q-83 0 -149 -19q-68 -20 -148 -71l-119 250q103 58 211 92q113 35 240 35q125 0 230 -41
q104 -41 177 -117q84 -84 134 -201q51 -120 51 -276q0 -74 -7 -137q-7 -59 -20 -133h203v-287h-981v-31zM451 1352q-68 0 -118 39t-50 114q0 68 48 110t120 42q71 0 119 -42t48 -110q0 -75 -50 -114t-117 -39z" />
    <glyph glyph-name="uniFEA7" unicode="&#x62e;" horiz-adv-x="1263" arabic-form="initial" 
d="M0 287h850q17 71 26 147q9 80 9 146q0 63 -24 132q-24 68 -77 115q-88 78 -241 78q-84 0 -150 -19t-147 -71l-119 250q103 58 211 92q113 35 240 35q125 0 230 -41q104 -41 177 -117q83 -83 133 -201q51 -120 51 -276q0 -86 -10 -162q-13 -100 -24 -153q-18 -88 -32 -136
q-24 -82 -32 -106h-1071v287zM541 1364q-69 0 -118 39q-50 39 -50 115q0 67 48 109t120 42q71 0 119 -42q49 -43 49 -109q0 -75 -51 -115q-50 -39 -117 -39z" />
    <glyph glyph-name="uniFEA8" unicode="&#x62e;" horiz-adv-x="1243" arabic-form="medial" 
d="M-82 287h850q17 71 26 147q9 80 9 146q0 63 -24 132q-24 68 -77 115q-89 78 -241 78q-84 0 -150 -19t-147 -71l-119 250q103 58 211 92q113 35 240 35q125 0 230 -41q104 -41 177 -117q83 -83 133 -201q51 -120 51 -276q0 -74 -7 -137q-8 -73 -19 -133h221v-287h-1364
v287zM459 1364q-69 0 -118 39q-50 39 -50 115q0 67 48 109t120 42t120 -42t48 -109q0 -76 -50 -115t-118 -39z" />
    <glyph glyph-name="uniFEAA" unicode="&#x62f;" horiz-adv-x="1255" arabic-form="final" 
d="M72 287h714v313q0 63 -13 108t-42 80q-29 37 -73 57q-47 21 -101 21h-123v287h94q139 0 244 -36q104 -36 182 -118q66 -69 93 -177q26 -104 26 -234v-301h221v-287h-1222v287z" />
    <glyph glyph-name="uniFEAC" unicode="&#x630;" horiz-adv-x="1255" arabic-form="final" 
d="M72 287h714v313q0 63 -13 108t-42 80q-29 37 -73 57q-47 21 -101 21h-123v287h94q139 0 244 -36q104 -36 182 -118q66 -69 93 -177q26 -104 26 -234v-301h221v-287h-1222v287zM586 1305q-70 0 -118 38q-50 39 -50 115q0 68 48 110t120 42t120 -42t48 -110q0 -75 -51 -115
q-48 -38 -117 -38z" />
    <glyph glyph-name="uniFEAE" unicode="&#x631;" horiz-adv-x="817" arabic-form="final" 
d="M227 -451q-28 0 -80 6q-31 4 -65 13l-21 287q38 -10 72 -15q27 -4 64 -4q84 0 119 47q34 46 34 154v1116h287v-866h221v-287h-223q-12 -236 -109 -344q-96 -107 -299 -107z" />
    <glyph glyph-name="uniFEB0" unicode="&#x632;" horiz-adv-x="817" arabic-form="final" 
d="M227 -451q-28 0 -80 6q-31 4 -65 13l-21 287q38 -10 72 -15q27 -4 64 -4q84 0 119 47q34 46 34 154v1116h287v-866h221v-287h-223q-12 -236 -109 -344q-96 -107 -299 -107zM487 1327q-67 0 -117 39q-51 40 -51 115q0 66 49 109q48 42 119 42q72 0 120 -42t48 -109
q0 -76 -50 -115q-49 -39 -118 -39z" />
    <glyph glyph-name="uniFEB2" unicode="&#x633;" horiz-adv-x="3020" arabic-form="final" 
d="M2019 555q0 -147 71 -218t187 -71q123 0 185 70q61 68 61 188v772h285v-735q0 -104 -19 -194q52 -42 128 -61q77 -19 157 -19v-287q-88 0 -144 14q-64 16 -104 38q-44 24 -70 53q-28 31 -46 61q-129 -186 -433 -186q-59 0 -116 9q-61 10 -111 31t-99 61q-46 37 -81 95
q-78 -83 -184 -129q-108 -47 -224 -47h-211v-256h-471q-92 0 -167 9t-138 30q-66 22 -116 52q-51 31 -99 77q-76 72 -106 185q-31 118 -31 239v670h287v-635q0 -94 19 -157t67 -105q53 -45 133 -62q77 -16 172 -16h164v1122h286v-866h211q49 0 93 11q51 13 89 41
q40 30 64 79q25 52 25 125v508h286v-496z" />
    <glyph glyph-name="uniFEB3" unicode="&#x633;" horiz-adv-x="2392" arabic-form="initial" 
d="M0 287h446v764h287v-764h209q49 0 93 11q49 12 88 41q42 31 65 79q24 50 24 125v508h287v-508q5 -142 73 -209q70 -68 185 -68q123 0 185 70q61 68 61 188v772h285v-735q0 -296 -131 -439q-130 -142 -400 -142q-60 0 -117 9q-60 9 -110 31q-50 21 -99 61q-46 37 -81 95
q-78 -82 -185 -129q-108 -47 -223 -47h-942v287z" />
    <glyph glyph-name="uniFEB4" unicode="&#x633;" horiz-adv-x="2519" arabic-form="medial" 
d="M1501 555q0 -147 71 -218t187 -71q123 0 185 70q61 68 61 188v772h285v-735q0 -54 -4 -93q-4 -36 -11 -85q90 -96 287 -96v-287q-88 0 -145 14q-61 15 -105 39q-39 21 -70 56t-47 61q-129 -190 -436 -190q-60 0 -117 9q-60 9 -110 31q-50 21 -99 61q-46 37 -81 95
q-78 -82 -185 -129q-108 -47 -223 -47h-942v287h447v764h286v-764h209q49 0 93 11q49 12 88 41q42 31 65 79q24 50 24 125v508h287v-496z" />
    <glyph glyph-name="uniFEB6" unicode="&#x634;" horiz-adv-x="3020" arabic-form="final" 
d="M2019 555v-12v-2q4 -139 74 -207t184 -68q123 0 185 70q61 68 61 188v772h285v-735q0 -104 -19 -194q52 -42 128 -61q77 -19 157 -19v-287q-88 0 -144 14q-64 16 -104 38q-44 24 -70 53q-28 31 -46 61q-129 -186 -433 -186q-59 0 -116 9q-61 10 -111 31t-99 61
q-46 37 -81 95q-78 -83 -184 -129q-108 -47 -224 -47h-211v-256h-471q-92 0 -167 9t-138 30q-66 22 -116 52q-51 31 -99 77q-76 72 -106 185q-31 118 -31 239v670h287v-635q0 -94 19 -157t67 -105q53 -45 133 -62q77 -16 172 -16h164v1122h286v-866h211q49 0 93 11
q51 13 89 41q40 30 64 79q25 52 25 125v508h286v-496zM2095 1339q-61 0 -107 36t-46 108q0 63 44 102t109 39q69 0 112 -39q44 -39 44 -102q0 -72 -46 -108q-47 -36 -110 -36zM1661 1339q-61 0 -108 36q-46 36 -46 108q0 63 44 102q43 39 110 39q66 0 111 -39t45 -102
q0 -71 -48 -108q-47 -36 -108 -36zM1878 1665q-52 0 -95 32q-42 31 -42 93q0 56 39 90q40 35 98 35t98 -35q39 -34 39 -90q0 -61 -41 -93t-96 -32z" />
    <glyph glyph-name="uniFEB7" unicode="&#x634;" horiz-adv-x="2392" arabic-form="initial" 
d="M0 287h446v764h287v-764h209q49 0 93 11q49 12 88 41q42 31 65 79q24 50 24 125v508h287v-496q0 -147 71 -218t187 -71q123 0 185 70q61 68 61 188v772h285v-735q0 -296 -131 -439q-130 -142 -400 -142q-60 0 -117 9q-60 9 -110 31q-50 21 -99 61q-46 37 -81 95
q-78 -82 -185 -129q-108 -47 -223 -47h-942v287zM1573 1339q-61 0 -108 36q-46 36 -46 108q0 63 44 102q43 39 110 39t111 -39q45 -40 45 -102q0 -72 -47 -108q-46 -36 -109 -36zM1139 1339q-61 0 -108 36q-46 36 -46 108q0 63 44 102q43 39 110 39q65 0 110 -39t45 -102
q0 -72 -47 -108t-108 -36zM1356 1665q-52 0 -95 32q-42 31 -42 93q0 56 38 90q40 35 99 35q58 0 98 -35q39 -34 39 -90q0 -61 -41 -93t-96 -32z" />
    <glyph glyph-name="uniFEB8" unicode="&#x634;" horiz-adv-x="2516" arabic-form="medial" 
d="M1501 543v-2q4 -139 74 -207t184 -68q123 0 185 70q61 68 61 188v772h285v-735q0 -59 -4 -100q-3 -33 -13 -90q49 -43 129 -63q82 -21 160 -21v-287q-88 0 -145 14q-63 15 -106 39t-72 56q-28 31 -46 61q-127 -190 -434 -190q-60 0 -117 9q-60 9 -110 31q-50 21 -99 61
q-46 37 -81 95q-78 -82 -185 -129q-108 -47 -223 -47h-942v287h447v764h286v-764h209q49 0 93 11q49 12 88 41q42 31 65 79q24 50 24 125v508h287v-508zM1571 1339q-61 0 -108 36q-46 36 -46 108q0 63 44 102q43 39 110 39t111 -39t44 -102q0 -72 -46 -108q-47 -36 -109 -36
zM1137 1339q-61 0 -108 36q-46 36 -46 108q0 63 44 102q43 39 110 39q65 0 110 -39t45 -102q0 -72 -47 -108t-108 -36zM1354 1665q-53 0 -96 32q-41 31 -41 93q0 56 38 90q40 35 99 35q58 0 98 -35q39 -34 39 -90q0 -61 -41 -93t-96 -32z" />
    <glyph glyph-name="uniFEBA" unicode="&#x635;" horiz-adv-x="2611" arabic-form="final" 
d="M782 -256q-92 0 -167 9t-138 30q-66 22 -116 52q-51 31 -99 77q-76 72 -106 185q-31 118 -31 239v670h287v-635q0 -94 19 -157t67 -105q53 -45 133 -62q77 -16 172 -16h164v1161h286v-141h633q139 0 244 -36q104 -36 182 -118q65 -68 92 -177q27 -108 27 -235v-198h221
v-287h-1399v-256h-471zM1253 766v-479h891v211q0 62 -13 107q-13 47 -42 81q-27 35 -73 57q-48 23 -101 23h-662z" />
    <glyph glyph-name="uniFEBB" unicode="&#x635;" horiz-adv-x="1761" arabic-form="initial" 
d="M0 287h201v866h286v-102h625q139 0 244 -36q104 -36 182 -118q65 -68 92 -177q27 -108 27 -235v-485h-1657v287zM487 766v-479h883v211q0 62 -13 107q-13 47 -42 81q-27 35 -73 57q-48 23 -101 23h-654z" />
    <glyph glyph-name="uniFEBC" unicode="&#x635;" horiz-adv-x="1839" arabic-form="medial" 
d="M0 287h201v866h286v-102h625q139 0 244 -36q104 -36 182 -118q65 -68 92 -177q27 -108 27 -235v-198h221v-287h-1878v287zM487 766v-479h883v211q0 62 -13 107q-13 47 -42 81q-27 35 -73 57q-48 23 -101 23h-654z" />
    <glyph glyph-name="uniFEBE" unicode="&#x636;" horiz-adv-x="2611" arabic-form="final" 
d="M782 -256q-92 0 -167 9t-138 30q-66 22 -116 52q-51 31 -99 77q-76 72 -106 185q-31 118 -31 239v670h287v-635q0 -94 19 -157t67 -105q53 -45 133 -62q77 -16 172 -16h164v1161h286v-141h633q139 0 244 -36q104 -36 182 -118q65 -68 92 -177q27 -108 27 -235v-198h221
v-287h-1399v-256h-471zM1253 766v-479h891v211q0 62 -13 107q-13 47 -42 81q-27 35 -73 57q-48 23 -101 23h-662zM1677 1235q-67 0 -117 39q-51 40 -51 115q0 66 49 109q48 42 119 42q72 0 120 -42t48 -109q0 -76 -50 -115q-49 -39 -118 -39z" />
    <glyph glyph-name="uniFEBF" unicode="&#x636;" horiz-adv-x="1761" arabic-form="initial" 
d="M0 287h201v866h286v-102h625q139 0 244 -36q104 -36 182 -118q65 -68 92 -177q27 -108 27 -235v-485h-1657v287zM487 766v-479h883v211q0 62 -13 107q-13 47 -42 81q-27 35 -73 57q-48 23 -101 23h-654zM922 1235q-68 0 -118 39t-50 115q0 67 48 109t120 42q71 0 119 -42
q49 -43 49 -109q0 -75 -51 -115q-49 -39 -117 -39z" />
    <glyph glyph-name="uniFEC0" unicode="&#x636;" horiz-adv-x="1839" arabic-form="medial" 
d="M0 287h201v866h286v-102h625q139 0 244 -36q104 -36 182 -118q65 -68 92 -177q27 -108 27 -235v-198h221v-287h-1878v287zM487 766v-479h883v211q0 62 -13 107q-13 47 -42 81q-27 35 -73 57q-48 23 -101 23h-654zM922 1235q-68 0 -118 39t-50 115q0 67 48 109t120 42
q71 0 119 -42q49 -43 49 -109q0 -75 -51 -115q-49 -39 -117 -39z" />
    <glyph glyph-name="uniFEC2" unicode="&#x637;" horiz-adv-x="1875" arabic-form="final" 
d="M37 287h201v1374h286v-610h625q139 0 244 -36q104 -36 182 -118q65 -68 92 -177q27 -108 27 -235v-198h223v-287h-1880v287zM524 766v-479h883v211q0 62 -13 107q-14 47 -42 81q-27 35 -73 57q-48 23 -101 23h-654z" />
    <glyph glyph-name="uniFEC3" unicode="&#x637;" horiz-adv-x="1761" arabic-form="initial" 
d="M0 287h201v1374h286v-610h625q139 0 244 -36q104 -36 182 -118q65 -68 92 -177q27 -108 27 -235v-485h-1657v287zM487 766v-479h883v211q0 62 -13 107q-13 47 -42 81q-27 35 -73 57q-48 23 -101 23h-654z" />
    <glyph glyph-name="uniFEC4" unicode="&#x637;" horiz-adv-x="1839" arabic-form="medial" 
d="M0 287h201v1374h286v-610h625q139 0 244 -36q104 -36 182 -118q65 -68 92 -177q27 -108 27 -235v-198h221v-287h-1878v287zM487 766v-479h883v211q0 62 -13 107q-13 47 -42 81q-27 35 -73 57q-48 23 -101 23h-654z" />
    <glyph glyph-name="uniFEC6" unicode="&#x638;" horiz-adv-x="1875" arabic-form="final" 
d="M37 287h201v1374h286v-610h625q139 0 244 -36q104 -36 182 -118q65 -68 92 -177q27 -108 27 -235v-198h223v-287h-1880v287zM524 766v-479h883v211q0 62 -13 107q-14 47 -42 81q-27 35 -73 57q-48 23 -101 23h-654zM967 1235q-69 0 -118 39q-50 39 -50 115q0 67 48 109
t120 42q71 0 119 -42q49 -43 49 -109q0 -75 -51 -115q-50 -39 -117 -39z" />
    <glyph glyph-name="uniFEC7" unicode="&#x638;" horiz-adv-x="1761" arabic-form="initial" 
d="M0 287h201v1374h286v-610h625q139 0 244 -36q104 -36 182 -118q65 -68 92 -177q27 -108 27 -235v-485h-1657v287zM487 766v-479h883v211q0 62 -13 107q-13 47 -42 81q-27 35 -73 57q-48 23 -101 23h-654zM928 1235q-68 0 -118 39t-50 115q0 67 48 109t120 42t120 -42
t48 -109q0 -76 -50 -115t-118 -39z" />
    <glyph glyph-name="uniFEC8" unicode="&#x638;" horiz-adv-x="1839" arabic-form="medial" 
d="M0 287h201v1374h286v-610h625q139 0 244 -36q104 -36 182 -118q65 -68 92 -177q27 -108 27 -235v-198h221v-287h-1878v287zM487 766v-479h883v211q0 62 -13 107q-13 47 -42 81q-27 35 -73 57q-48 23 -101 23h-654zM928 1235q-68 0 -118 39t-50 115q0 67 48 109t120 42
t120 -42t48 -109q0 -76 -50 -115t-118 -39z" />
    <glyph glyph-name="uniFECA" unicode="&#x639;" horiz-adv-x="1497" arabic-form="final" 
d="M246 -451q-76 107 -120 237q-44 129 -44 294q0 116 18 207h303l-253 651q85 73 148 117q76 53 152 92q77 40 158 60q86 22 170 22q179 0 334 -82q157 -83 297 -211l-246 -649h375v-287h-1165v-31q0 -76 22 -151q21 -73 74 -164zM778 926q-85 0 -157 -27t-150 -84
l186 -528h246l187 530q-85 60 -155 84q-72 25 -157 25z" />
    <glyph glyph-name="uniFECB" unicode="&#x639;" horiz-adv-x="1261" arabic-form="initial" 
d="M0 287h223q-35 73 -60 157q-26 87 -26 185q0 145 58 258q57 110 147 184q72 60 167 90q98 31 206 31q115 0 218 -30q100 -29 208 -83l-97 -260q-68 39 -144 63q-78 25 -150 25q-142 0 -224 -69q-53 -45 -77 -106q-23 -60 -23 -126q0 -96 29 -177q28 -77 80 -142h649v-287
h-1184v287z" />
    <glyph glyph-name="uniFECC" unicode="&#x639;" horiz-adv-x="1441" arabic-form="medial" 
d="M0 287h346l-254 651q81 69 149 117q79 55 151 92q76 39 159 60q86 22 170 22q179 0 334 -82q157 -83 297 -211l-246 -649h377v-287h-1483v287zM721 926q-86 0 -158 -27q-70 -26 -149 -84l186 -528h246l186 530q-86 60 -154 84q-72 25 -157 25z" />
    <glyph glyph-name="uniFECE" unicode="&#x63a;" horiz-adv-x="1497" arabic-form="final" 
d="M246 -451q-76 107 -120 237q-44 129 -44 294q0 116 18 207h303l-253 651q85 73 148 117q76 53 152 92q77 40 158 60q86 22 170 22q179 0 334 -82q157 -83 297 -211l-246 -649h375v-287h-1165v-31q0 -76 22 -151q21 -73 74 -164zM778 926q-85 0 -157 -27t-150 -84
l186 -528h246l187 530q-85 60 -155 84q-72 25 -157 25zM766 1364q-68 0 -118 39t-50 115q0 67 48 109t120 42t120 -42t48 -109q0 -76 -50 -115t-118 -39z" />
    <glyph glyph-name="uniFECF" unicode="&#x63a;" horiz-adv-x="1261" arabic-form="initial" 
d="M0 287h223q-35 73 -60 157q-26 87 -26 185q0 145 58 258q57 110 147 184q72 60 167 90q98 31 206 31q115 0 218 -30q100 -29 208 -83l-97 -260q-68 39 -144 63q-78 25 -150 25q-142 0 -224 -69q-53 -45 -77 -106q-23 -60 -23 -126q0 -96 29 -177q28 -77 80 -142h649v-287
h-1184v287zM676 1364q-68 0 -118 39t-50 115q0 67 48 109t120 42t120 -42t48 -109q0 -76 -50 -115t-118 -39z" />
    <glyph glyph-name="uniFED0" unicode="&#x63a;" horiz-adv-x="1441" arabic-form="medial" 
d="M0 287h346l-254 651q81 69 149 117q79 55 151 92q76 39 159 60q86 22 170 22q179 0 334 -82q157 -83 297 -211l-246 -649h377v-287h-1483v287zM721 926q-86 0 -158 -27q-70 -26 -149 -84l186 -528h246l186 530q-86 60 -154 84q-72 25 -157 25zM717 1364q-69 0 -118 39
q-50 39 -50 115q0 67 48 109t120 42t120 -42t48 -109q0 -76 -50 -115q-49 -39 -118 -39z" />
    <glyph glyph-name="uniFED2" unicode="&#x641;" horiz-adv-x="2224" arabic-form="final" 
d="M762 0q-92 0 -167 9t-138 30q-66 22 -116 52q-51 31 -99 77q-78 73 -107 185q-31 118 -31 239v387h287v-352q0 -91 20 -157q19 -64 66 -105q53 -45 133 -62q77 -16 172 -16h334q-46 61 -72 131q-26 69 -26 160q0 133 50 241q49 105 140 181q90 75 217 114q128 39 281 39
h338v-866h219v-287h-1501zM1305 578q0 -94 42 -168q43 -75 113 -123h297v579h-121q-61 0 -121 -18q-62 -19 -107 -55q-46 -37 -75 -92q-28 -53 -28 -123zM1649 1327q-69 0 -118 39q-50 39 -50 115q0 67 48 109t120 42q71 0 119 -42q49 -43 49 -109q0 -75 -51 -115
q-50 -39 -117 -39z" />
    <glyph glyph-name="uniFED3" unicode="&#x641;" horiz-adv-x="1294" arabic-form="initial" 
d="M0 287h274q-44 58 -71 131q-27 72 -27 160q0 133 50 241q48 104 141 181q90 75 217 114t280 39h338v-1153h-1202v287zM463 578q0 -94 42 -168t114 -123h296v579h-120q-62 0 -122 -18q-62 -19 -107 -55q-44 -36 -74 -92q-29 -55 -29 -123zM778 1327q-68 0 -118 39t-50 115
q0 67 48 109t120 42t120 -42t48 -109q0 -76 -50 -115t-118 -39z" />
    <glyph glyph-name="uniFED4" unicode="&#x641;" horiz-adv-x="1351" arabic-form="medial" 
d="M0 287h274q-44 58 -71 131q-27 72 -27 160q0 133 50 241q48 104 141 181q90 75 217 114t280 39h338v-866h191v-287h-1393v287zM463 578q0 -94 42 -168t114 -123h296v579h-120q-62 0 -122 -18q-62 -19 -107 -55q-44 -36 -74 -92q-29 -55 -29 -123zM776 1327q-68 0 -118 39
t-50 115q0 67 48 109t120 42t120 -42t48 -109q0 -76 -50 -115t-118 -39z" />
    <glyph glyph-name="uniFED6" unicode="&#x642;" horiz-adv-x="1849" arabic-form="final" 
d="M764 -451q-84 0 -167 10q-80 10 -138 29q-62 21 -116 53t-99 76q-77 73 -107 186q-31 118 -31 238v449h287v-414q0 -91 20 -157q19 -65 66 -105q51 -44 133 -61t172 -17h596v164h-37q-147 0 -275 33q-129 33 -223 102q-96 70 -150 179q-54 110 -54 264q0 136 52 241
q52 106 146 180q93 73 222 114q127 40 282 40h324v-866h221v-287h-221v-451h-903zM928 578q0 -73 25 -126q26 -54 71 -92q44 -37 105 -55q60 -18 131 -18h120v579h-120q-67 0 -124 -20q-60 -21 -107 -59q-46 -37 -74 -91q-27 -53 -27 -118zM1499 1327q-66 0 -113 38t-47 110
q0 65 46 105t114 40q71 0 115 -40q45 -40 45 -105q0 -72 -47 -110t-113 -38zM1055 1327q-66 0 -113 38t-47 110q0 65 46 105t114 40q67 0 113 -40t46 -105q0 -72 -47 -110t-112 -38z" />
    <glyph glyph-name="uniFED7" unicode="&#x642;" horiz-adv-x="1294" arabic-form="initial" 
d="M0 287h274q-44 58 -71 131q-27 72 -27 160q0 133 50 241q48 104 141 181q90 75 217 114t280 39h338v-1153h-1202v287zM463 578q0 -94 42 -168t114 -123h296v579h-120q-62 0 -122 -18q-62 -19 -107 -55q-44 -36 -74 -92q-29 -55 -29 -123zM1004 1327q-66 0 -113 38
t-47 110q0 65 46 105t114 40q70 0 114 -40q45 -40 45 -105q0 -72 -47 -110t-112 -38zM559 1327q-66 0 -113 38t-47 110q0 65 46 105t114 40t114 -40t46 -105q0 -72 -47 -110t-113 -38z" />
    <glyph glyph-name="uniFED8" unicode="&#x642;" horiz-adv-x="1349" arabic-form="medial" 
d="M0 287h274q-44 58 -71 131q-27 72 -27 160q0 133 50 241q48 104 141 181q90 75 217 114t280 39h338v-866h189v-287h-1391v287zM463 578q0 -94 42 -168t114 -123h296v579h-120q-62 0 -122 -18q-62 -19 -107 -55q-44 -36 -74 -92q-29 -55 -29 -123zM1004 1327
q-66 0 -113 38t-47 110q0 65 46 105t114 40q70 0 114 -40q45 -40 45 -105q0 -72 -47 -110t-112 -38zM559 1327q-66 0 -113 38t-47 110q0 65 46 105t114 40t114 -40t46 -105q0 -72 -47 -110t-113 -38z" />
    <glyph glyph-name="uniFEDA" unicode="&#x643;" horiz-adv-x="1951" arabic-form="final" 
d="M840 0q-92 0 -167 9t-138 30q-66 22 -116 52q-54 32 -100 77q-76 72 -106 185q-31 118 -31 239v387h287v-352q0 -94 19 -157t67 -105q53 -45 133 -62q77 -16 172 -16h574v1374h286v-1374h222v-287h-1102zM745 864q0 140 69 197t190 57h122v-92h-106q-62 0 -86 -27
q-25 -28 -25 -75v-56h283v-153h-447v149z" />
    <glyph glyph-name="uniFEDB" unicode="&#x643;" horiz-adv-x="1671" arabic-form="initial" 
d="M0 287h1276v219q0 62 -13 107q-13 47 -42 81q-29 36 -73 58q-45 22 -101 22h-857q-39 50 -66 122q-28 72 -32 163l332 602h307l-317 -602h604q139 0 244 -36q104 -36 182 -118q65 -68 92 -177q27 -108 27 -234v-494h-1563v287z" />
    <glyph glyph-name="uniFEDC" unicode="&#x643;" horiz-adv-x="1742" arabic-form="medial" 
d="M0 287h1276v219q0 62 -13 107q-13 47 -42 81q-29 36 -73 58q-45 22 -101 22h-857q-39 50 -66 122q-28 72 -32 163l332 602h307l-317 -602h604q139 0 244 -36q104 -36 182 -118q65 -68 92 -177q27 -108 27 -234v-207h219v-287h-1782v287z" />
    <glyph glyph-name="uniFEDE" unicode="&#x644;" horiz-adv-x="1462" arabic-form="final" 
d="M770 -256q-92 0 -167 9t-138 30q-66 22 -116 52q-51 31 -99 77q-78 73 -107 185q-30 114 -30 239v670h286v-635q0 -91 20 -157q19 -64 66 -105q53 -45 133 -62q77 -16 173 -16h163v1630h422v-287h-135v-1087h262v-287h-262v-256h-471z" />
    <glyph glyph-name="uniFEDF" unicode="&#x644;" horiz-adv-x="702" arabic-form="initial" 
d="M0 287h201v1374h420v-287h-134v-1374h-487v287z" />
    <glyph glyph-name="uniFEE0" unicode="&#x644;" horiz-adv-x="708" arabic-form="medial" 
d="M0 287h201v1374h286v-1374h263v-287h-750v287z" />
    <glyph glyph-name="uniFEE2" unicode="&#x645;" horiz-adv-x="1970" arabic-form="final" 
d="M1171 -225q-105 0 -195 32q-91 32 -170 91q-76 57 -133 136q-56 78 -85 171q-115 -8 -168 -82q-34 -46 -48 -117q-14 -72 -14 -149v-308h-286v312q0 161 37 276q39 120 114 203q32 36 75 64q50 32 88 48q41 17 93 29q49 11 88 11q17 106 72 206q56 100 134 166
q83 71 182 110q101 40 216 40q129 0 243 -48q113 -48 199 -132q84 -82 133 -199q48 -114 48 -248q0 -19 -2 -51q-2 -26 -6 -49h225v-287h-358q-85 -105 -212 -165q-126 -60 -270 -60zM1171 61q68 0 132 25q57 22 107 69q46 43 72 104q25 59 25 132q0 71 -24 133
q-24 61 -70 107q-45 45 -106 70q-63 26 -136 26q-71 0 -131 -27q-59 -27 -102 -71q-44 -46 -68 -107t-24 -131t24 -130q23 -58 69 -104t103 -70q61 -26 129 -26z" />
    <glyph glyph-name="uniFEE3" unicode="&#x645;" horiz-adv-x="1495" arabic-form="initial" 
d="M0 287h199q-10 39 -12 63q-3 33 -3 68q0 131 48 245q46 109 132 198q80 83 194 134q110 49 239 49q128 0 242 -48q113 -48 199 -132q85 -83 133 -198q48 -114 48 -248q0 -131 -50 -243q-48 -108 -136 -193q-85 -82 -199 -129q-116 -48 -237 -48q-131 0 -246 53
q-118 54 -201 142h-350v287zM797 92q67 0 131 25q59 23 107 68q45 43 72 105q26 61 26 132q0 69 -25 133q-24 61 -70 107q-45 44 -106 70q-63 26 -135 26q-71 0 -131 -27q-59 -27 -103 -72q-43 -44 -67 -106q-25 -64 -25 -131q0 -68 25 -130t68 -105t104 -69t129 -26z" />
    <glyph glyph-name="uniFEE4" unicode="&#x645;" horiz-adv-x="1593" arabic-form="medial" 
d="M0 287h199q-10 39 -12 63q-3 33 -3 68q0 131 48 245q46 109 132 198q80 83 194 134q110 49 239 49q128 0 242 -48q113 -48 199 -132q85 -83 133 -198q48 -114 48 -248q0 -39 -4 -68q-6 -41 -10 -63h229v-287h-383q-87 -93 -203 -143q-121 -52 -251 -52q-131 0 -246 53
q-118 54 -201 142h-350v287zM797 92q67 0 131 25q59 23 107 68q45 43 72 105q26 61 26 132q0 69 -25 133q-24 61 -70 107q-45 44 -106 70q-63 26 -135 26q-71 0 -131 -27q-59 -27 -103 -72q-43 -44 -67 -106q-25 -64 -25 -131q0 -68 25 -130t68 -105t104 -69t129 -26z" />
    <glyph glyph-name="uniFEE6" unicode="&#x646;" horiz-adv-x="1423" arabic-form="final" 
d="M770 -256q-92 0 -167 9t-138 30q-66 22 -116 52q-51 31 -99 77q-78 73 -107 185q-30 114 -30 239v670h286v-635q0 -91 20 -157q19 -64 66 -105q53 -45 133 -62q77 -16 173 -16h163v975h287v-719h221v-287h-221v-256h-471zM692 1188q-68 0 -118 39t-50 114q0 68 48 110
t120 42t120 -42t48 -110q0 -75 -50 -114t-118 -39z" />
    <glyph glyph-name="uniFEE7" unicode="&#x646;" horiz-adv-x="663" arabic-form="initial" 
d="M391 1327q-69 0 -118 39q-50 39 -50 115q0 67 48 109t120 42t120 -42t48 -109q0 -76 -50 -115q-49 -39 -118 -39zM0 287h254v866h287v-1153h-541v287z" />
    <glyph glyph-name="uniFEE8" unicode="&#x646;" horiz-adv-x="720" arabic-form="medial" 
d="M0 287h254v866h287v-866h219v-287h-760v287zM389 1327q-69 0 -118 39q-50 39 -50 115q0 67 48 109t120 42t120 -42t48 -109q0 -76 -50 -115q-49 -39 -118 -39z" />
    <glyph glyph-name="uniFEE9" unicode="&#x647;" horiz-adv-x="1265" arabic-form="isolated" 
d="M813 0q-153 0 -282 35t-221 106q-91 71 -145 181q-52 107 -52 253q0 125 47 231q47 105 137 182q92 78 220 121q132 44 296 44h41v102h287v-1255h-328zM854 287v579h-111q-65 0 -125 -19q-62 -20 -110 -56t-79 -92q-30 -54 -30 -124t28 -124t74 -91t105 -55
q60 -18 123 -18h125z" />
    <glyph glyph-name="uniFEEA" unicode="&#x647;" horiz-adv-x="1290" arabic-form="final" 
d="M1329 287v-287h-516q-153 0 -282 35t-221 106q-91 71 -145 181q-52 107 -52 253q0 125 47 231q47 105 137 182q92 78 220 121q132 44 296 44h41v102h287v-968h188zM854 287v579h-111q-65 0 -125 -19q-62 -20 -110 -56t-79 -92q-30 -54 -30 -124t28 -124t74 -91t105 -55
q60 -18 123 -18h125z" />
    <glyph glyph-name="uniFEEB" unicode="&#x647;" horiz-adv-x="1650" arabic-form="initial" 
d="M0 287h233q-7 31 -12 68q-6 41 -6 79q0 229 113 351t311 122q93 0 171 -34q80 -35 136 -95q58 -63 89 -148q32 -88 32 -194q0 -35 -5 -80q-4 -35 -11 -69h186q7 53 12 102q4 44 4 92q0 124 -25 217q-26 96 -81 181q-69 104 -183 157q-117 54 -288 54q-131 0 -241 -43
q-106 -42 -193 -89l-97 261q140 69 295 114q156 45 310 45q112 0 206 -24q93 -24 171 -68q83 -47 138 -102q63 -63 107 -127q86 -126 127 -282q41 -158 41 -343q0 -55 -7 -108q-10 -79 -17 -115q-11 -61 -24 -112q-14 -57 -28 -97h-1464v287zM471 440q0 -40 5 -85
q4 -37 9 -68h312q5 31 9 68q5 45 5 85q0 98 -45 155q-44 56 -127 56q-87 0 -127 -56q-41 -58 -41 -155z" />
    <glyph glyph-name="uniFEEC" unicode="&#x647;" horiz-adv-x="1683" arabic-form="medial" 
d="M0 287h233q-7 31 -12 68q-6 41 -6 79q0 229 113 351t311 122q93 0 171 -34q80 -35 136 -95q58 -63 89 -148q32 -88 32 -194q0 -35 -5 -80q-4 -35 -11 -69h186q7 53 12 102q4 44 4 92q0 124 -25 217q-26 96 -81 181q-69 104 -183 157q-117 54 -288 54q-131 0 -241 -43
q-106 -42 -193 -89l-97 261q140 69 295 114q156 45 310 45q112 0 206 -24q93 -24 171 -68q83 -47 138 -102q63 -63 107 -127q86 -126 127 -282q41 -158 41 -343q0 -68 -12 -145h196v-287h-1724v287zM471 440q0 -40 5 -85q4 -37 9 -68h312q5 31 9 68q5 45 5 85q0 98 -45 155
q-44 56 -127 56q-87 0 -127 -56q-41 -58 -41 -155z" />
    <glyph glyph-name="uniFEEE" unicode="&#x648;" horiz-adv-x="1288" arabic-form="final" 
d="M1137 287h190v-287h-194q-7 -95 -39 -183q-29 -81 -93 -143q-60 -59 -157 -92q-96 -33 -234 -33q-29 0 -75 4q-35 3 -69 9q-8 1 -71 14l-84 23l-20 288q85 -27 155 -39q72 -12 144 -12q54 0 104 5q45 4 77 23t51 50q20 34 26 86h-33q-147 0 -275 33q-131 34 -224 102
q-95 69 -149 179t-54 264q0 136 52 241q53 107 145 180q93 73 222 114q127 40 283 40h324zM399 578q0 -71 26 -126q26 -54 71 -92q44 -37 105 -55q60 -18 130 -18h121v579h-121q-67 0 -124 -20q-58 -20 -106 -59q-46 -37 -74 -91t-28 -118z" />
    <glyph glyph-name="uniFEF0" unicode="&#x649;" horiz-adv-x="2213" arabic-form="final" 
d="M760 -256q-92 0 -167 9t-138 30q-66 22 -116 52q-51 31 -99 77q-78 73 -107 185q-31 118 -31 239v448h287v-413q0 -91 20 -157q19 -64 66 -105q53 -45 133 -62q77 -16 172 -16h299v577q0 147 42 255q41 107 134 181q71 55 172 82t220 27h387v-866h219v-287h-506v866h-131
q-56 0 -96 -11q-44 -12 -78 -40q-35 -29 -56 -82q-20 -50 -20 -106v-883h-606z" />
    <glyph glyph-name="uniFEF2" unicode="&#x64a;" horiz-adv-x="2072" arabic-form="final" 
d="M1606 866h-131q-57 0 -97 -11q-44 -12 -78 -40q-33 -27 -55 -82q-20 -50 -20 -106v-883h-594q-112 0 -186 7q-75 7 -145 23q-66 15 -126 42q-69 31 -129 65l115 252q102 -58 189 -80t190 -22h399v577q0 147 42 255q41 107 134 181q71 55 172 82q100 27 219 27h387v-866
h219v-287h-505v866zM588 190q-68 0 -118 39t-50 115q0 68 48 110t120 42t120 -42t48 -110q0 -76 -50 -115t-118 -39zM588 625q-68 0 -118 39t-50 114q0 68 48 110t120 42t120 -42t48 -110q0 -75 -50 -114t-118 -39z" />
    <glyph glyph-name="uniFEF3" unicode="&#x64a;" horiz-adv-x="872" arabic-form="initial" 
d="M229 -436q-66 0 -112 37q-47 38 -47 108q0 67 46 107q47 41 113 41q67 0 114 -41q46 -40 46 -107q0 -70 -47 -108q-46 -37 -113 -37zM674 -436q-67 0 -113 37q-47 38 -47 108q0 67 46 107q47 41 114 41q68 0 114 -41t46 -107q0 -69 -48 -108q-46 -37 -112 -37zM2 287h428
v866h287v-1153h-715v287z" />
    <glyph glyph-name="uniFEF4" unicode="&#x64a;" horiz-adv-x="1050" arabic-form="medial" 
d="M0 287h428v866h287v-866h377v-287h-1092v287zM778 -436q-66 0 -112 37q-48 39 -48 108q0 66 47 107t113 41q69 0 115 -41q45 -40 45 -107q0 -70 -47 -108q-46 -37 -113 -37zM334 -436q-67 0 -113 37q-47 38 -47 108q0 67 46 107q47 41 114 41q66 0 113 -41t47 -107
q0 -69 -48 -108q-46 -37 -112 -37z" />
    <glyph glyph-name=".notdef" horiz-adv-x="1024" 
 />
    <glyph glyph-name=".null" horiz-adv-x="1024" 
 />
    <glyph glyph-name=".null" horiz-adv-x="1024" 
 />
    <glyph glyph-name="nonmarkingreturn" horiz-adv-x="1024" 
 />
    <glyph glyph-name="space" unicode=" " horiz-adv-x="614" 
 />
    <glyph glyph-name="space" unicode="&#xa0;" horiz-adv-x="614" 
 />
    <glyph glyph-name="exclam" unicode="!" horiz-adv-x="714" 
d="M356 -23q-36 0 -70 12t-61 33q-25 20 -43 52q-16 29 -16 67t16 69q17 33 43 53q30 23 61 34q34 12 70 12q34 0 69 -12q31 -11 59 -34q25 -21 42 -53t17 -69q0 -36 -17 -67q-18 -32 -42 -52q-26 -22 -59 -33q-35 -12 -69 -12zM211 1661h287v-1176h-287v1176z" />
    <glyph glyph-name="quotedbl" unicode="&#x22;" horiz-adv-x="989" 
d="M96 1661h307l-53 -655h-198zM586 1661h305l-53 -655h-197z" />
    <glyph glyph-name="numbersign" unicode="#" horiz-adv-x="1691" 
d="M504 1243l57 418h219l-57 -418h356l58 418h217l-58 -418h334l-39 -219h-323l-51 -375h331l-39 -219h-321l-58 -430h-219l58 430h-357l-57 -430h-217l57 430h-334l39 219h324l51 375h-332l39 219h322zM643 649h356l52 375h-357z" />
    <glyph glyph-name="dollar" unicode="$" horiz-adv-x="1474" 
d="M618 -20q-152 10 -293 48q-140 37 -233 95l117 260q42 -28 100 -52q53 -22 122 -40q65 -17 132 -27q64 -10 133 -10q76 0 141 12t111 39q49 28 75 69q28 44 28 99q0 50 -23 90q-23 41 -63 67q-39 26 -100 48q-60 21 -130 39l-137 35q-229 56 -342 182q-115 129 -115 313
q0 180 129 294q128 113 348 142v220h240v-217q128 -15 255 -53q119 -36 212 -91l-117 -260q-90 59 -219 94t-248 35q-58 0 -108 -10q-56 -11 -94 -31q-43 -22 -67 -52q-26 -32 -26 -77q0 -82 63 -130q62 -47 202 -85l139 -35q112 -29 198 -69q94 -44 162 -106
q72 -66 111 -148q41 -87 41 -197q0 -104 -37 -185q-39 -85 -103 -145t-160 -100q-89 -38 -204 -53v-230h-240v222z" />
    <glyph glyph-name="percent" unicode="%" horiz-adv-x="2205" 
d="M494 709q-100 0 -171 34q-72 34 -122 100t-74 154q-25 94 -25 203t25 203q24 90 74 155q49 64 122 99t171 35q97 0 172 -35q72 -34 122 -99t74 -155q25 -94 25 -203t-25 -203q-24 -88 -74 -154q-51 -67 -122 -100q-72 -34 -172 -34zM494 942q71 0 114 59t43 199
q0 141 -43 200q-43 60 -114 60q-72 0 -115 -60q-43 -59 -43 -200q0 -140 43 -199t115 -59zM377 2l1161 1659h293l-1161 -1659h-293zM1710 -27q-98 0 -171 35q-72 34 -122 100t-74 154q-24 90 -24 203t24 203q24 88 74 154t122 100q71 34 171 34t172 -34t123 -100
q50 -66 74 -154q24 -90 24 -203t-24 -203q-24 -88 -74 -154q-51 -66 -123 -100q-75 -35 -172 -35zM1710 207q72 0 115 59t43 199q0 141 -43 200q-43 60 -115 60t-115 -60q-43 -59 -43 -200q0 -140 43 -199t115 -59z" />
    <glyph glyph-name="ampersand" unicode="&#x26;" horiz-adv-x="1800" 
d="M682 -25q-139 0 -255 35q-113 34 -195 101q-81 66 -124 158q-45 96 -45 210q0 173 102 294q103 122 322 200q-79 91 -125 176q-47 86 -47 184q0 80 36 146q35 64 101 113t155 74q93 26 200 26q120 0 213 -29q94 -29 156 -81q63 -53 95 -125q32 -73 32 -161
q0 -52 -20 -114q-20 -61 -61 -117q-44 -59 -108 -109q-67 -51 -160 -90l279 -301q46 74 83 169q32 83 50 181h299q-24 -145 -87 -286q-64 -143 -157 -264l338 -365h-362l-164 172q-113 -91 -253 -144q-139 -53 -298 -53zM690 242q107 0 196 32q87 31 167 91l-391 417
q-166 -49 -232 -118q-65 -68 -65 -166q0 -60 24 -108q23 -46 69 -81q42 -32 103 -50q57 -17 129 -17zM614 1317q0 -67 50 -129q53 -66 116 -133q134 45 186 105q54 63 54 128q0 80 -62 121t-141 41t-141 -32t-62 -101z" />
    <glyph glyph-name="quotesingle" unicode="'" horiz-adv-x="499" 
d="M96 1661h307l-53 -655h-198z" />
    <glyph glyph-name="parenleft" unicode="(" horiz-adv-x="667" 
d="M92 608q0 157 28 317q26 149 71 290q42 132 100 251q58 120 108 195h283q-62 -104 -117 -223q-54 -118 -97 -255q-42 -132 -66 -280q-23 -139 -23 -295q0 -153 23 -294q24 -145 66 -281q43 -139 97 -258q57 -127 117 -226h-283q-51 77 -108 196q-58 121 -100 254
q-45 142 -71 294q-28 162 -28 315z" />
    <glyph glyph-name="parenright" unicode=")" horiz-adv-x="665" 
d="M573 608q0 -159 -27 -315q-26 -152 -71 -294q-45 -143 -97 -254t-108 -196h-284q53 88 117 226q58 126 98 258q42 140 65 281q25 153 25 294q0 144 -25 294q-24 142 -65 280q-39 131 -98 256q-61 130 -117 223h284q55 -84 108 -195q52 -110 97 -251t71 -290
q27 -155 27 -317z" />
    <glyph glyph-name="asterisk" unicode="*" horiz-adv-x="978" 
d="M573 1374l285 99l60 -164l-285 -97l174 -239l-139 -105l-181 244l-170 -244l-145 101l172 241l-283 99l58 164l280 -99v287h174v-287z" />
    <glyph glyph-name="plus" unicode="+" horiz-adv-x="1382" 
d="M547 451h-453v266h453v436h289v-436h450v-266h-450v-451h-289v451z" />
    <glyph glyph-name="comma" unicode="," horiz-adv-x="616" 
d="M229 281h303l-266 -621h-231z" />
    <glyph glyph-name="hyphen" unicode="-" horiz-adv-x="835" 
d="M94 717h647v-266h-647v266z" />
    <glyph glyph-name="period" unicode="." horiz-adv-x="589" 
d="M295 -23q-37 0 -71 12q-37 13 -59 31q-24 20 -42 52q-17 31 -17 67q0 39 17 70q18 32 42 52q28 23 59 34q34 12 71 12t71 -12q31 -11 59 -34q24 -20 42 -52q16 -29 16 -70q0 -38 -16 -67q-18 -32 -42 -52q-22 -18 -59 -31q-35 -12 -71 -12z" />
    <glyph glyph-name="slash" unicode="/" horiz-adv-x="1263" 
d="M1053 1661h272l-1108 -1968h-278z" />
    <glyph glyph-name="zero" unicode="0" horiz-adv-x="1409" 
d="M705 258q142 0 214 117t72 327q0 211 -72 328t-214 117q-143 0 -216 -117q-73 -116 -73 -328q0 -211 73 -327q73 -117 216 -117zM705 -23q-143 0 -255 55q-111 55 -184 150q-72 94 -110 230q-37 132 -37 290q0 159 37 291q38 136 110 230q73 95 184 150q110 54 255 54
q143 0 252 -54q111 -55 184 -150q73 -96 111 -230q38 -135 38 -291q0 -155 -38 -290q-38 -134 -111 -230q-73 -95 -184 -150q-112 -55 -252 -55z" />
    <glyph glyph-name="one" unicode="1" horiz-adv-x="819" 
d="M362 1071l-321 -72v263l608 135v-1397h-287v1071z" />
    <glyph glyph-name="two" unicode="2" horiz-adv-x="1241" 
d="M547 1147q-95 0 -171 -33q-79 -34 -149 -88l-129 252q92 69 220 110q123 39 264 39q106 0 200 -24q91 -23 165 -75q70 -49 113 -127q42 -77 42 -181q0 -100 -38 -193q-37 -90 -111 -184q-74 -95 -180 -184q-114 -96 -245 -193h588v-266h-1022v256l256 188q121 92 225 185
q102 91 162 175q62 86 62 159q0 47 -21 81q-22 37 -55 58t-80 34q-41 11 -96 11z" />
    <glyph glyph-name="three" unicode="3" horiz-adv-x="1251" 
d="M547 -23q-62 0 -133 11q-74 11 -133 29q-66 20 -125 46q-58 26 -105 62l127 256q72 -57 157 -90t177 -33q62 0 115 10t97 32q43 21 68 54q25 32 25 78q0 47 -24 77q-23 29 -68 46t-103 23q-60 6 -133 6h-47v270h43q69 0 132 5q55 4 94 20q36 14 54 40q17 24 17 66
q0 79 -74 120q-75 42 -190 42q-92 0 -175 -33q-85 -34 -155 -88l-127 254q90 67 225 108q127 39 263 39q120 0 214 -26q96 -27 168 -77q68 -48 109 -123q39 -72 39 -165q0 -54 -13 -102q-13 -49 -37 -89q-25 -43 -55 -71q-32 -30 -69 -45q92 -35 152 -117q59 -81 59 -217
q0 -100 -42 -178q-43 -79 -118 -131q-81 -56 -180 -81q-109 -28 -229 -28z" />
    <glyph glyph-name="four" unicode="4" horiz-adv-x="1384" 
d="M778 317h-702v265l622 798h367v-796h209v-267h-209v-317h-287v317zM778 584v532l-409 -532h409z" />
    <glyph glyph-name="five" unicode="5" horiz-adv-x="1331" 
d="M633 -23q-146 0 -281 39q-134 39 -250 109l129 258q34 -28 80 -51q44 -22 95 -39q56 -19 98 -25q53 -8 96 -8q56 0 110 9t96 33q41 23 67 62q26 38 26 95q0 55 -22 92q-21 35 -62 60q-38 23 -93 34q-51 10 -116 10q-52 0 -104 -7q-74 -10 -110 -17q-59 -11 -105 -25
q-80 -23 -92 -28l98 802h827v-266h-596l-26 -211q48 8 87 11q58 4 89 4q94 0 191 -22q91 -20 167 -75q73 -52 119 -142q45 -89 45 -224q0 -117 -45 -206q-46 -90 -122 -150q-78 -61 -179 -91q-105 -31 -217 -31z" />
    <glyph glyph-name="six" unicode="6" horiz-adv-x="1282" 
d="M641 -23q-107 0 -205 37q-97 37 -173 105t-119 162q-44 96 -44 206q0 147 54 269q53 120 141 233l299 391h369l-314 -379q5 1 14.5 2.5t13.5 1.5q9 1 28 1q85 0 171 -36q83 -35 152 -104q68 -68 110 -164t42 -215q0 -111 -44 -205q-44 -93 -119 -161q-77 -70 -172 -106
q-99 -38 -204 -38zM641 258q112 0 177 70t65 170q0 98 -65 168q-64 69 -177 69q-115 0 -179 -69q-65 -70 -65 -168q0 -100 65 -170t179 -70z" />
    <glyph glyph-name="seven" unicode="7" horiz-adv-x="1214" 
d="M801 1116h-725v264h1046v-264l-667 -1116h-344z" />
    <glyph glyph-name="eight" unicode="8" horiz-adv-x="1380" 
d="M690 1427q101 0 189 -23q91 -24 163 -72t116 -121t44 -171q0 -54 -14 -100q-15 -51 -38 -89q-24 -41 -52 -70q-25 -27 -60 -44q35 -16 76 -49q37 -29 66 -74q30 -46 47 -98q18 -56 18 -123q0 -109 -50 -189q-49 -78 -130 -129t-178 -74q-99 -24 -197 -24q-97 0 -196 24
t-179 74q-81 51 -130 129q-50 80 -50 189q0 67 18 123t47 98q33 47 66 74q41 33 76 49q-33 16 -59 44q-31 32 -53 70q-21 35 -37 89q-15 50 -15 100q0 98 44 171t116 121t164 72q88 23 188 23zM690 612q-115 0 -184 -48q-70 -49 -70 -130q0 -80 71 -128t183 -48t183 48
t71 128q0 81 -70 130q-69 48 -184 48zM690 1147q-92 0 -155 -39q-64 -40 -64 -107q0 -59 57 -102q56 -43 162 -43q105 0 161 43t56 102q0 69 -62 107q-63 39 -155 39z" />
    <glyph glyph-name="nine" unicode="9" horiz-adv-x="1282" 
d="M641 1427q110 0 204 -36q97 -37 172 -105q76 -68 119 -162q44 -96 44 -206q0 -147 -55 -268q-52 -114 -138 -234l-299 -416h-369l312 406q-13 -5 -27 -5h-29q-83 0 -168 36q-84 35 -153 103q-67 66 -111 161q-43 93 -43 217q0 111 44 205q44 93 119 161q77 70 172 106
q96 37 206 37zM641 1147q-115 0 -179 -69q-65 -70 -65 -169q0 -100 65 -170q64 -69 179 -69q113 0 177 69q65 70 65 170q0 99 -64 169q-63 69 -178 69z" />
    <glyph glyph-name="colon" unicode=":" horiz-adv-x="608" 
d="M305 -23q-37 0 -71 12q-37 13 -59 31q-24 20 -42 52q-16 29 -16 67q0 41 16 70q18 32 42 52q28 23 59 34q34 12 71 12q35 0 69 -12q31 -11 59 -34q24 -20 42 -52q17 -31 17 -70q0 -36 -17 -67q-18 -32 -42 -52q-22 -18 -59 -31q-34 -12 -69 -12zM305 778q-37 0 -71 12
q-35 12 -59 32t-42 52q-16 29 -16 70q0 39 16 68q18 32 42 52q28 23 59 34q35 12 71 12q35 0 69 -12q31 -11 59 -34q24 -20 42 -52q17 -31 17 -68q0 -39 -17 -70q-18 -32 -42 -52t-59 -32q-34 -12 -69 -12z" />
    <glyph glyph-name="semicolon" unicode=";" horiz-adv-x="645" 
d="M229 281h303l-266 -621h-231zM371 778q-37 0 -71 12q-35 12 -59 32t-42 52q-17 31 -17 70q0 37 17 68q18 32 42 52q28 23 59 34q34 12 71 12q33 0 68 -12q31 -11 61 -34q25 -20 43 -52q16 -29 16 -68q0 -41 -16 -70q-18 -32 -43 -52t-61 -32q-35 -12 -68 -12z" />
    <glyph glyph-name="less" unicode="&#x3c;" horiz-adv-x="1386" 
d="M1292 1180v-273l-891 -334l891 -327v-275l-1198 467v275z" />
    <glyph glyph-name="equal" unicode="=" horiz-adv-x="1247" 
d="M94 981h1059v-266h-1059v266zM94 455h1059v-269h-1059v269z" />
    <glyph glyph-name="greater" unicode="&#x3e;" horiz-adv-x="1386" 
d="M1292 713v-275l-1198 -467v291l891 311l-891 320v287z" />
    <glyph glyph-name="question" unicode="?" horiz-adv-x="1163" 
d="M469 -25q-35 0 -72 13q-31 11 -61 34q-26 20 -43 53q-17 32 -17 70q0 39 17 71t43 54q28 24 61 35q35 12 72 12t72 -12q34 -12 62 -35t44 -54q17 -32 17 -71q0 -38 -17 -70t-44 -53q-29 -22 -62 -34q-37 -13 -72 -13zM463 1411q-100 0 -191 -23q-97 -25 -180 -61l37 297
q67 28 156 48q88 20 207 20q122 0 230 -36q103 -34 186 -103q79 -66 124 -160q45 -95 45 -211q0 -110 -37 -194q-38 -86 -98 -148q-63 -65 -144 -106q-78 -40 -175 -62v-187h-287v404h24q84 0 158 13q76 13 133 45q56 31 91 83q34 50 34 125q0 60 -27 108q-25 45 -73 80
q-45 33 -101 51q-52 17 -112 17z" />
    <glyph glyph-name="at" unicode="@" horiz-adv-x="1923" 
d="M1405 362q-91 0 -157 55q-64 53 -79 161q-55 -102 -140 -155q-87 -54 -214 -54q-67 0 -130 24q-62 24 -110 76q-47 51 -75 130q-29 81 -29 187q0 100 33 198q33 99 94 174q62 76 150 123q88 46 200 46q97 0 166 -48q71 -49 103 -130q6 34 9 71q4 43 7 68h166l-68 -508
q-6 -53 -6 -94q0 -79 25 -118q24 -38 80 -38q44 0 86 28q40 27 71 81q30 52 48 130q18 77 18 175q0 144 -47 256q-46 109 -133 184t-206 112q-122 38 -263 38q-164 0 -296 -55q-136 -57 -230 -152q-94 -96 -147 -228q-52 -131 -52 -286q0 -144 43 -264q44 -123 124 -209
q83 -89 200 -138q120 -50 267 -50q107 0 229 24q118 23 222 76l66 -164q-60 -27 -126 -48q-63 -20 -135 -36q-54 -12 -133 -21q-70 -8 -123 -8q-182 0 -334 64q-153 64 -260 176q-106 111 -167 267q-60 154 -60 337q0 185 71 347q71 161 193 279q122 117 290 184
q169 67 362 67q167 0 319 -44q147 -43 262 -136q112 -91 177 -233t65 -331q0 -142 -37 -252t-97 -185t-136 -114q-77 -39 -156 -39zM950 1153q-63 0 -116 -31q-51 -30 -88 -81q-35 -48 -55 -117q-19 -66 -19 -142q0 -121 50 -182q49 -59 146 -59q68 0 121 30q51 29 90 84
q39 56 56 122q18 69 18 147q0 109 -53 170q-52 59 -150 59z" />
    <glyph glyph-name="A" unicode="A" horiz-adv-x="1628" 
d="M1608 0h-310l-141 391h-688l-139 -391h-310l615 1661h358zM567 668h492l-246 690z" />
    <glyph glyph-name="B" unicode="B" horiz-adv-x="1564" 
d="M1376 1243q0 -107 -56 -201q-58 -97 -175 -149q83 -24 144 -68q64 -46 99 -97q38 -55 56 -116q18 -62 18 -125q0 -132 -52 -223q-53 -92 -136 -150q-85 -59 -194 -86q-114 -28 -222 -28h-653v1661h571q156 0 268 -33q116 -34 187 -89q74 -57 109 -132q36 -77 36 -164z
M1157 494q0 66 -23 108q-24 44 -69 68q-46 25 -110 35q-61 10 -146 10h-309v-441h317q174 0 257 53t83 167zM1071 1192q0 86 -72 140t-241 54h-258v-395h258q164 0 238 49q75 50 75 152z" />
    <glyph glyph-name="C" unicode="C" horiz-adv-x="1585" 
d="M965 1411q-111 0 -214 -35q-104 -35 -179 -106q-76 -71 -121 -180q-45 -108 -45 -256t45 -256q47 -112 121 -182q77 -73 179 -107q103 -35 214 -35q125 0 228 34q109 36 196 91l114 -262q-108 -67 -250 -104q-146 -38 -301 -38q-196 0 -356 65q-161 65 -271 180
q-112 116 -172 273q-61 159 -61 341t61 341q60 155 172 272q110 115 271 180q160 65 356 65q157 0 301 -39q143 -39 250 -105l-114 -260q-85 53 -196 89q-103 34 -228 34z" />
    <glyph glyph-name="D" unicode="D" horiz-adv-x="1699" 
d="M637 274q151 0 273 30q124 31 208 97q85 67 132 176q46 107 46 263q0 144 -47 249q-46 103 -132 169q-90 69 -205 98q-120 30 -265 30h-147v-1112h137zM205 1661h438q209 0 384 -52q176 -52 306 -155t202 -257q73 -157 73 -357q0 -201 -71 -358q-70 -155 -197 -264
q-125 -107 -301 -163q-174 -55 -384 -55h-450v1661z" />
    <glyph glyph-name="E" unicode="E" horiz-adv-x="1402" 
d="M205 1661h1061v-275h-766v-395h694v-278h-694v-439h770v-274h-1065v1661z" />
    <glyph glyph-name="F" unicode="F" horiz-adv-x="1325" 
d="M205 0v1661h1059v-275h-764v-395h690v-278h-690v-713h-295z" />
    <glyph glyph-name="G" unicode="G" horiz-adv-x="1804" 
d="M952 -25q-196 0 -356 65q-161 65 -271 180q-112 116 -172 273q-61 159 -61 341t61 341q60 155 172 272q110 115 271 180q160 65 356 65q181 0 340 -39q161 -40 267 -105l-113 -260q-87 54 -213 89q-121 34 -268 34q-111 0 -214 -35q-104 -35 -179 -106q-76 -71 -121 -180
q-45 -108 -45 -256t45 -256q47 -112 121 -182q77 -73 179 -107q103 -35 214 -35q87 0 176 18q81 16 164 54v299h-371v278h665v-776q-64 -40 -138 -65q-84 -29 -165 -47q-75 -17 -175 -29q-93 -11 -169 -11z" />
    <glyph glyph-name="H" unicode="H" horiz-adv-x="1798" 
d="M205 0v1661h295v-670h796v670h297v-1661h-297v713h-796v-713h-295z" />
    <glyph glyph-name="I" unicode="I" horiz-adv-x="704" 
d="M205 0v1661h295v-1661h-295z" />
    <glyph glyph-name="J" unicode="J" horiz-adv-x="1060" 
d="M109 322q59 -34 116 -50q63 -18 137 -18q94 0 147 54q52 53 52 186v1167h295v-1180q0 -132 -31 -231q-30 -97 -87 -157q-58 -62 -138 -89q-84 -29 -182 -29q-135 0 -245 29q-106 28 -173 66z" />
    <glyph glyph-name="K" unicode="K" horiz-adv-x="1568" 
d="M205 0v1661h295v-830l647 830h360l-667 -823l708 -838h-370l-678 827v-827h-295z" />
    <glyph glyph-name="L" unicode="L" horiz-adv-x="1306" 
d="M502 274h764v-274h-1061v1661h297v-1387z" />
    <glyph glyph-name="M" unicode="M" horiz-adv-x="2134" 
d="M885 0l-385 1417v-1417h-295v1661h500l362 -1399l367 1399h495v-1661h-295v1417l-383 -1417h-366z" />
    <glyph glyph-name="N" unicode="N" horiz-adv-x="1759" 
d="M496 1384v-1384h-291v1661h454l607 -1385v1385h288v-1661h-452z" />
    <glyph glyph-name="O" unicode="O" horiz-adv-x="1908" 
d="M1817 834q0 -181 -64 -339q-63 -157 -178 -273q-113 -114 -272 -181q-157 -66 -349 -66q-190 0 -348 66q-159 67 -272 181q-115 116 -178 273q-64 158 -64 339q0 177 64 337q63 158 178 273t272 181q160 67 348 67q189 0 349 -67q157 -66 272 -181t178 -273
q64 -160 64 -337zM1505 834q0 130 -42 237q-42 106 -115 182q-74 77 -174 117q-102 41 -220 41q-115 0 -217 -41q-101 -40 -174 -117q-75 -78 -116 -182t-41 -237q0 -134 41 -238t116 -182q73 -76 174 -117q102 -41 217 -41q118 0 220 41q100 41 174 117q73 76 115 182
t42 238z" />
    <glyph glyph-name="P" unicode="P" horiz-adv-x="1476" 
d="M500 621v-621h-295v1661h622q162 0 275 -43q115 -44 188 -114q74 -71 110 -162q36 -92 36 -189q0 -106 -37 -201q-38 -98 -113 -170q-77 -74 -190 -117q-115 -44 -269 -44h-327zM500 1386v-491h264q80 0 146 12t115 41t74 78t25 121q0 123 -88 181t-272 58h-264z" />
    <glyph glyph-name="Q" unicode="Q" horiz-adv-x="1908" 
d="M1817 834q0 -198 -74 -366q-74 -167 -209 -284l260 -274l-143 -143l-285 303q-185 -95 -412 -95q-190 0 -348 66q-159 67 -272 181q-115 116 -178 273q-64 158 -64 339q0 177 64 337q63 158 178 273t272 181q160 67 348 67q189 0 349 -67q157 -66 272 -181t178 -273
q64 -160 64 -337zM1505 834q0 130 -42 237q-42 106 -115 182q-74 77 -174 117q-102 41 -220 41q-115 0 -217 -41q-101 -40 -174 -117q-75 -78 -116 -182t-41 -237q0 -134 41 -238t116 -182q73 -76 174 -118t217 -42q107 0 203 35l-174 186l145 139l205 -217q79 78 126 188
q46 108 46 249z" />
    <glyph glyph-name="R" unicode="R" horiz-adv-x="1601" 
d="M793 655h-293v-655h-295v1661h622q163 0 277 -42t188 -113t108 -160t34 -187q0 -68 -19 -141q-19 -71 -58 -131q-41 -61 -105 -111q-66 -50 -156 -80l434 -696h-332zM500 1386v-475h262q79 0 148 11t114 37q47 27 73 75q25 46 25 119q0 125 -88 179q-89 54 -272 54h-262z
" />
    <glyph glyph-name="S" unicode="S" horiz-adv-x="1474" 
d="M209 383q42 -28 100 -52q53 -22 122 -40q65 -17 132 -27q64 -10 133 -10q76 0 141 12t111 39q49 28 75 69q28 44 28 99q0 50 -23 88q-22 37 -63 64q-40 26 -100 45q-78 24 -130 37l-137 34q-228 55 -342 183q-115 129 -115 313q0 101 43 184q44 86 123 145q79 60 191 93
q111 33 245 33q78 0 159 -12q96 -14 157 -31q80 -22 144 -47q70 -28 122 -60l-117 -260q-90 59 -219 94t-248 35q-64 0 -112 -11q-56 -13 -94 -34q-42 -24 -65 -56q-24 -34 -24 -79q0 -81 63 -131t202 -84l139 -35q102 -26 198 -68q93 -41 162 -102q72 -64 111 -145
q41 -85 41 -195q0 -121 -50 -213t-137 -155q-85 -62 -208 -95q-121 -33 -262 -33q-87 0 -174 12q-100 14 -166 30q-87 21 -150 46q-73 29 -123 60z" />
    <glyph glyph-name="T" unicode="T" horiz-adv-x="1484" 
d="M594 1386h-553v275h1403v-275h-553v-1386h-297v1386z" />
    <glyph glyph-name="U" unicode="U" horiz-adv-x="1794" 
d="M897 -25q-194 0 -330 53t-220 143q-85 91 -124 215q-39 125 -39 265v1010h295v-942q0 -111 22 -202q21 -87 70 -145t129 -88t197 -30q115 0 195 30t129 88q48 57 71 145q23 89 23 202v942h295v-1010q0 -140 -39 -265q-39 -124 -124 -215q-84 -90 -220 -143t-330 -53z" />
    <glyph glyph-name="V" unicode="V" horiz-adv-x="1599" 
d="M41 1661h326l432 -1358l434 1358h326l-566 -1661h-387z" />
    <glyph glyph-name="W" unicode="W" horiz-adv-x="2195" 
d="M1536 346l270 1315h328l-383 -1661h-412l-241 1380l-242 -1380h-412l-383 1661h326l270 -1315l234 1315h412z" />
    <glyph glyph-name="X" unicode="X" horiz-adv-x="1644" 
d="M987 864l617 -864h-342l-447 625l-446 -625h-328l610 854l-575 807h344l403 -567l406 567h330z" />
    <glyph glyph-name="Y" unicode="Y" horiz-adv-x="1536" 
d="M1163 1661h342l-587 -1038v-623h-297v623l-590 1038h342l395 -748z" />
    <glyph glyph-name="Z" unicode="Z" horiz-adv-x="1544" 
d="M184 1661h1205v-272l-920 -1115h942v-274h-1298v272l921 1114h-850v275z" />
    <glyph glyph-name="bracketleft" unicode="[" horiz-adv-x="688" 
d="M166 1661h491v-207h-204v-1698h204v-207h-491v2112z" />
    <glyph glyph-name="backslash" unicode="\" horiz-adv-x="1263" 
d="M1325 -307h-278l-1108 1968h272z" />
    <glyph glyph-name="bracketright" unicode="]" horiz-adv-x="688" 
d="M522 -451h-491v207h205v1698h-205v207h491v-2112z" />
    <glyph glyph-name="asciicircum" unicode="^" horiz-adv-x="1138" 
d="M1126 838h-252l-305 622l-307 -622h-250l422 823h268z" />
    <glyph glyph-name="underscore" unicode="_" horiz-adv-x="1241" 
d="M94 0h1055v-268h-1055v268z" />
    <glyph glyph-name="grave" unicode="`" horiz-adv-x="587" 
d="M31 1661h286l240 -287h-233z" />
    <glyph glyph-name="a" unicode="a" horiz-adv-x="1294" 
d="M864 500q-31 8 -94 17q-49 7 -100 7q-59 0 -104 -7q-52 -8 -85 -24q-36 -17 -58 -47t-22 -69q0 -80 73 -112t179 -32q42 0 109 9q56 8 102 24v234zM649 -25q-109 0 -208 21q-102 22 -174 65q-74 44 -120 118q-45 72 -45 179q0 97 40 170q40 74 111 123q71 50 170 74
q103 25 216 25q27 0 103 -4q60 -3 122 -13v17q0 99 -73 133q-75 35 -193 35q-35 0 -98 -9q-59 -8 -108 -22q-54 -15 -105 -33q-49 -17 -94 -39l36 293q67 34 179 60q110 26 229 26q107 0 205 -25q93 -24 163 -77q68 -53 107 -142q39 -88 39 -213v-671q-108 -42 -242 -67
q-130 -24 -260 -24z" />
    <glyph glyph-name="b" unicode="b" horiz-adv-x="1368" 
d="M453 279q103 -23 178 -23q170 0 270 79t100 247q0 167 -100 249t-270 82q-36 0 -84 -5q-45 -5 -94 -19v-610zM453 1178q64 8 108 12t90 4q147 0 268 -47q116 -45 204 -130q83 -80 131 -195q46 -110 46 -240q0 -129 -45 -240q-44 -108 -131 -192q-83 -80 -211 -128
q-126 -47 -284 -47q-250 0 -463 60v1626h287v-483z" />
    <glyph glyph-name="c" unicode="c" horiz-adv-x="1142" 
d="M68 584q0 132 46 242q47 112 129 194q81 81 196 128q113 46 247 46q115 0 215 -25q95 -24 184 -69l-114 -258q-55 32 -125 52q-66 19 -148 19q-76 0 -135 -23t-104 -68q-42 -42 -67 -104q-23 -58 -23 -134t23 -134q25 -62 67 -104t104 -66q61 -24 135 -24q80 0 148 18
q64 17 125 54l114 -260q-89 -45 -184 -69q-96 -24 -215 -24q-132 0 -247 47q-116 47 -196 126q-82 80 -129 193q-46 110 -46 243z" />
    <glyph glyph-name="d" unicode="d" horiz-adv-x="1370" 
d="M369 582q0 -168 100 -247t270 -79q76 0 179 23v610q-49 14 -97 19t-82 5q-170 0 -270 -82t-100 -249zM918 1661h286v-1626q-214 -60 -463 -60q-158 0 -284 47q-127 47 -212 128q-88 83 -132 192q-45 111 -45 240q0 130 46 240q48 114 132 195q87 84 206 130
q121 47 267 47q45 0 89 -4q51 -5 110 -12v483z" />
    <glyph glyph-name="e" unicode="e" horiz-adv-x="1333" 
d="M739 256q43 0 96 8q42 6 96 22q48 14 85 31t61 41l127 -256q-94 -52 -213 -89q-123 -38 -291 -38q-136 0 -253 47q-116 47 -200 128q-86 83 -132 193q-47 112 -47 241q0 132 48 245t131 194q82 81 194 126q111 45 239 45q133 0 245 -47t191 -138t123 -223
q43 -129 37 -297h-914q29 -119 120 -176q92 -57 227 -57h30zM676 940q-118 0 -197 -60q-78 -59 -106 -153h602q-23 107 -103 160t-196 53z" />
    <glyph glyph-name="f" unicode="f" horiz-adv-x="1042" 
d="M51 1153h217v111q0 207 110 302t349 95h274v-266h-272q-55 0 -89 -12q-35 -12 -53 -33q-20 -23 -26 -58t-6 -82v-57h438v-266h-438v-887h-287v887h-217v266z" />
    <glyph glyph-name="g" unicode="g" horiz-adv-x="1370" 
d="M918 889q-25 6 -93 17q-42 7 -86 7q-171 0 -270 -75q-100 -76 -100 -238q0 -160 100 -238q99 -77 270 -77q34 0 82 5q41 4 97 17v582zM68 600q0 128 45 236q45 109 132 188q88 80 212 125t284 45q252 0 463 -61v-1045q0 -156 -29 -258q-29 -103 -100 -169
q-69 -64 -184 -93q-116 -29 -287 -29q-39 0 -78 4q-42 4 -88 12q-55 9 -88 16q-49 10 -78 19l-61 299q46 -19 95 -33q67 -19 108 -28q57 -12 107 -18q61 -7 95 -7q66 0 121 12q61 13 96 34q39 23 62 60t23 87v24q-55 -10 -110 -13q-50 -3 -89 -3q-148 0 -267 46
q-121 47 -206 126q-84 78 -132 189q-46 107 -46 235z" />
    <glyph glyph-name="h" unicode="h" horiz-adv-x="1359" 
d="M453 1169q70 11 125 18q56 7 106 7q115 0 208 -20q96 -21 169 -74q72 -54 114 -146t42 -233v-721h-287v639q0 157 -66 216q-65 58 -192 58q-48 0 -103 -6q-61 -7 -116 -16v-891h-287v1661h287v-492z" />
    <glyph glyph-name="i" unicode="i" horiz-adv-x="616" 
d="M166 1153h287v-1153h-287v1153zM309 1333q-69 0 -118 39q-50 39 -50 115q0 67 48 109t120 42q73 0 119 -42q47 -42 47 -109q0 -70 -46 -112q-47 -42 -120 -42z" />
    <glyph glyph-name="j" unicode="j" horiz-adv-x="659" 
d="M55 -461q-25 0 -52 3q-29 3 -52 9l-33 267q42 -11 69 -14q30 -3 58 -3q93 0 128 60q34 59 34 202v1090h287v-1055q0 -149 -20 -258q-19 -105 -70 -173q-51 -67 -135 -97q-88 -31 -214 -31zM350 1333q-68 0 -118 39t-50 115q0 67 48 109t120 42t119 -42t47 -109
q0 -70 -46 -112t-120 -42z" />
    <glyph glyph-name="k" unicode="k" horiz-adv-x="1247" 
d="M166 0v1661h287v-1075l428 567h340l-433 -571l459 -582h-344l-450 569v-569h-287z" />
    <glyph glyph-name="l" unicode="l" horiz-adv-x="618" 
d="M166 0v1661h287v-1661h-287z" />
    <glyph glyph-name="m" unicode="m" horiz-adv-x="2004" 
d="M1575 641q0 158 -54 215t-173 57q-48 0 -106 -12q-56 -12 -112 -37q8 -16 13 -39q4 -20 10 -57q4 -30 6 -62q2 -42 2 -57v-649h-287v641q0 81 -13 132q-14 53 -42 83q-29 30 -73 44q-42 13 -105 13q-45 0 -88 -8l-100 -16v-889h-287v1130q202 36 264 45q124 19 215 19
t180 -18q87 -18 146 -66q82 34 195 60q105 24 192 24q111 0 198 -20q92 -21 160 -74q68 -54 107 -146t39 -233v-721h-287v641z" />
    <glyph glyph-name="n" unicode="n" horiz-adv-x="1359" 
d="M166 1135q26 5 77 13t62 10q65 11 140 19q70 8 130 12q68 5 109 5q115 0 208 -20q96 -21 169 -74q72 -54 114 -146t42 -233v-721h-287v639q0 157 -66 216q-65 58 -192 58q-48 0 -103 -6q-61 -7 -116 -16v-891h-287v1135z" />
    <glyph glyph-name="o" unicode="o" horiz-adv-x="1384" 
d="M692 -25q-129 0 -247 48q-111 45 -197 128q-84 81 -132 192t-48 241q0 128 48 239q48 112 132 194q86 85 197 130q115 47 247 47t247 -47q112 -46 198 -130q84 -82 132 -194q48 -111 48 -239q0 -130 -48 -241t-132 -192q-85 -82 -198 -128q-118 -48 -247 -48zM692 256
q74 0 135 26q60 26 102 69q40 42 64 105q23 61 23 128t-23 128q-23 62 -64 104q-43 44 -102 71q-58 26 -135 26t-135 -26q-57 -26 -101 -71q-43 -44 -65 -104q-22 -59 -22 -128t22 -128q23 -62 65 -105q43 -44 101 -69q61 -26 135 -26z" />
    <glyph glyph-name="p" unicode="p" horiz-adv-x="1370" 
d="M453 279q64 -15 96 -18q48 -5 84 -5q170 0 270 82q101 83 101 248q0 168 -101 248q-100 79 -270 79q-46 0 -88 -7q-64 -11 -92 -17v-610zM453 -451h-287v1584q113 32 223 46q117 15 240 15q158 0 284 -47q124 -46 212 -128q86 -80 132 -193t46 -240q0 -129 -47 -241
t-131 -193q-87 -84 -205 -129q-125 -48 -269 -48q-39 0 -89 3q-44 3 -109 14v-443z" />
    <glyph glyph-name="q" unicode="q" horiz-adv-x="1370" 
d="M369 586q0 -166 100 -248t270 -82q34 0 82 5q33 3 97 18v610q-25 6 -93 17q-42 7 -86 7q-170 0 -270 -79t-100 -248zM918 -8q-64 -11 -110 -14q-50 -3 -89 -3q-143 0 -267 48q-121 47 -206 129q-86 83 -132 193t-46 241q0 129 45 240q46 113 132 193q88 82 212 128
q126 47 284 47q252 0 463 -61v-1584h-286v443z" />
    <glyph glyph-name="r" unicode="r" horiz-adv-x="897" 
d="M836 897h-164q-27 0 -48 -1q-44 -2 -66 -4q-39 -3 -63 -7q-34 -5 -42 -8v-877h-287v1122q59 12 115 20q65 9 120 15q40 4 116 10q51 4 101 4h218v-274z" />
    <glyph glyph-name="s" unicode="s" horiz-adv-x="1226" 
d="M606 256q92 0 152 20q63 21 63 70q0 46 -40 70q-43 25 -150 47l-92 16q-197 38 -308 123q-110 85 -110 236q0 164 128 260q127 96 353 96q138 0 265 -27q128 -27 225 -80l-105 -266q-34 18 -88 38q-49 18 -102 30q-51 12 -108 18q-54 6 -103 6q-180 0 -180 -75
q0 -40 40 -65q39 -24 150 -46l90 -16q233 -45 337 -136q101 -89 101 -245q0 -78 -32 -141q-33 -64 -99 -112t-165 -75t-230 -27q-55 0 -140 9q-68 7 -139 23q-61 14 -128 37q-57 20 -109 50l108 279q78 -51 189 -84t227 -33z" />
    <glyph glyph-name="t" unicode="t" horiz-adv-x="1083" 
d="M41 1153h217v422h287v-422h438v-266h-438v-418q0 -61 10 -98q11 -39 35 -62t63 -33q37 -10 97 -10h241v-266h-272q-121 0 -207 18q-85 18 -143 62q-57 43 -84 113q-27 69 -27 174v520h-217v266z" />
    <glyph glyph-name="u" unicode="u" horiz-adv-x="1314" 
d="M862 1153h287v-1094q-47 -16 -119 -35q-55 -15 -116 -27q-55 -11 -121 -16q-84 -6 -138 -6q-111 0 -205 24q-97 25 -166 79q-71 56 -111 145t-40 226v704h287v-623q0 -157 53 -216q52 -58 174 -58q47 0 99 6q50 6 116 23v868z" />
    <glyph glyph-name="v" unicode="v" horiz-adv-x="1228" 
d="M418 0l-398 1153h302l292 -881l293 881h301l-397 -1153h-393z" />
    <glyph glyph-name="w" unicode="w" horiz-adv-x="1851" 
d="M1120 0l-194 893l-197 -893h-385l-313 1153h313l211 -881l197 881h346l198 -881l209 881h316l-308 -1153h-393z" />
    <glyph glyph-name="x" unicode="x" horiz-adv-x="1300" 
d="M821 592l457 -592h-338l-289 373l-291 -373h-337l458 594l-432 559h340l262 -340l262 340h342z" />
    <glyph glyph-name="y" unicode="y" horiz-adv-x="1316" 
d="M158 -111q46 -19 95 -33q70 -20 107 -28q56 -12 108 -18q61 -7 95 -7q65 0 121 12q59 13 95 34q41 24 63 60q22 35 22 87v24q-117 -24 -229 -24q-116 0 -203 20q-93 21 -159 74q-64 51 -103 146q-37 90 -37 233v686h289v-604q0 -81 13 -132q13 -52 41 -84q27 -31 71 -45
q45 -14 102 -14q39 0 100 7q52 6 115 24v848h287v-1067q0 -153 -30 -258q-30 -104 -99 -169q-69 -64 -184 -93q-116 -29 -287 -29q-39 0 -78 4q-42 4 -88 12q-55 9 -88 16q-49 10 -78 19z" />
    <glyph glyph-name="z" unicode="z" horiz-adv-x="1193" 
d="M131 1153h940v-264l-625 -623h646v-266h-1010v266l637 621h-588v266z" />
    <glyph glyph-name="braceleft" unicode="{" horiz-adv-x="747" 
d="M596 -451q-102 0 -176 16q-70 15 -112 54q-40 38 -59 107q-18 68 -18 170v348q0 54 -6 100q-6 49 -23 81q-18 34 -51 54q-35 22 -90 23v209q56 2 90 22q33 20 51 55q17 32 23 81q6 47 6 102v344q0 103 18 170q18 68 59 106q43 40 112 55t176 15h121v-207h-66
q-46 0 -73 -6q-26 -6 -40 -23t-17 -46q-3 -30 -3 -76v-361q0 -89 -14 -144q-16 -62 -41 -97q-26 -37 -63 -58q-37 -22 -78 -33v-4q37 -10 78 -34q35 -21 63 -59q25 -35 41 -96q14 -55 14 -145v-364q0 -47 3 -77q3 -29 17 -46t40 -23q27 -6 73 -6h66v-207h-121z" />
    <glyph glyph-name="bar" unicode="|" horiz-adv-x="616" 
d="M166 1661h287v-2112h-287v2112z" />
    <glyph glyph-name="braceright" unicode="}" horiz-adv-x="747" 
d="M150 -451h-119v207h47q47 0 77 6q29 6 46 23t21 46q5 33 5 77v364q0 86 15 145q16 61 41 96q28 39 62 59q40 23 79 34v4q-43 12 -79 33q-35 20 -62 58q-25 35 -41 97q-15 58 -15 144v361q0 43 -5 76q-4 29 -21 46t-46 23q-30 6 -77 6h-47v207h119q107 0 176 -15
q68 -15 111 -55q42 -39 60 -106q17 -64 17 -170v-344q0 -55 6 -102q6 -44 25 -81q18 -34 52 -55t89 -22v-209q-54 -1 -89 -23q-35 -21 -52 -54q-19 -37 -25 -81q-6 -47 -6 -100v-348q0 -106 -17 -170q-18 -68 -60 -107t-111 -54q-74 -16 -176 -16z" />
    <glyph glyph-name="asciitilde" unicode="~" horiz-adv-x="1269" 
d="M848 629q57 0 90 34t43 125h207q-1 -199 -74 -308q-71 -107 -219 -107q-69 0 -132 24q-46 17 -121 56q-70 36 -113 55q-54 24 -105 24q-58 0 -91 -33t-44 -126h-205q0 197 73 307q72 108 218 108q76 0 142 -24q63 -23 124 -55l111 -56q51 -24 96 -24z" />
    <glyph glyph-name="exclamdown" unicode="&#xa1;" horiz-adv-x="714" 
d="M352 1255q39 0 71 -11t60 -33q25 -20 43 -52q17 -31 17 -67q0 -37 -17 -69q-17 -33 -43 -53q-31 -24 -60 -34q-34 -12 -71 -12q-34 0 -68 12q-31 11 -61 34q-27 21 -42 53q-15 31 -15 69q0 37 15 67q16 32 42 52q27 21 61 33q32 11 68 11zM498 -451h-287v1199h287v-1199z
" />
    <glyph glyph-name="cent" unicode="&#xa2;" horiz-adv-x="1142" 
d="M635 -23q-119 7 -227 58q-104 49 -181 129q-74 77 -117 187q-42 108 -42 233q0 122 42 230q42 109 117 188q78 82 181 131q103 48 227 59v197h96v-197q107 -5 190 -28q85 -24 164 -64l-114 -258q-53 30 -111 47t-129 22v-655q135 7 240 72l114 -260q-85 -43 -164 -64
q-86 -23 -190 -27v-200h-96v200zM369 584q0 -135 71 -219q73 -87 195 -105v647q-123 -18 -195 -105q-71 -86 -71 -218z" />
    <glyph glyph-name="sterling" unicode="&#xa3;" horiz-adv-x="1464" 
d="M829 1692q135 0 276 -33q139 -33 245 -90l-115 -254q-68 41 -172 69q-101 27 -203 27q-55 0 -121 -8q-57 -7 -111 -30q-50 -21 -83 -60t-33 -99q0 -42 14 -77q15 -37 37 -74q19 -32 50 -73q40 -53 55 -75h462v-266h-368q-5 -52 -28 -100q-25 -51 -59 -94q-36 -45 -82 -85
q-49 -42 -93 -71l2 -4q50 16 96 22q51 7 82 7q52 0 99 -12q79 -20 91 -24q30 -9 92 -25q43 -11 99 -11q61 0 124 12q62 12 130 45l88 -260q-79 -35 -168 -54q-91 -20 -193 -20q-63 0 -122 14q-80 19 -115 30q-51 16 -117 31q-58 13 -125 13t-150 -16q-81 -16 -190 -70
l-106 256q49 24 123 69q60 37 109 87q48 49 78 113q30 63 30 145v2h-355v266h250l-49 78q-22 32 -47 80q-20 38 -34 87q-13 45 -13 100q0 115 56 196q55 80 146 134q90 53 199 77q116 25 219 25z" />
    <glyph glyph-name="currency" unicode="&#xa4;" horiz-adv-x="1183" 
d="M592 1126q99 0 170 -25q72 -25 119 -65l127 117l151 -152l-123 -112q37 -55 57 -119q21 -68 21 -156t-21 -155q-20 -64 -57 -119l123 -113l-151 -151l-127 117q-47 -40 -119 -65q-73 -26 -170 -26t-170 26q-72 25 -119 65l-127 -117l-151 151l122 113q-35 52 -56 119
t-21 155t21 156q21 67 56 119l-122 112l151 152l127 -117q47 40 119 65q71 25 170 25zM592 299q64 0 127 25q60 24 103 67q45 45 70 101q26 58 26 122q0 67 -25 128q-24 59 -68 100q-43 40 -103 64t-130 24q-71 0 -131 -24t-103 -64q-42 -39 -67 -100t-25 -128
q0 -63 25 -122q24 -57 68 -101q42 -42 104 -67q63 -25 129 -25z" />
    <glyph glyph-name="yen" unicode="&#xa5;" horiz-adv-x="1536" 
d="M209 719h369l-547 942h307l430 -762l430 762h307l-544 -942h364v-197h-412v-143h412v-215h-412v-164h-288v164h-416v215h416v143h-416v197z" />
    <glyph glyph-name="brokenbar" unicode="&#xa6;" horiz-adv-x="616" 
d="M166 1661h287v-819h-287v819zM166 369h287v-820h-287v820z" />
    <glyph glyph-name="section" unicode="&#xa7;" horiz-adv-x="1495" 
d="M229 1321q0 91 40 159q40 69 109 115q70 47 159 71q90 24 192 24q139 0 265 -32q121 -31 216 -85l-102 -240q-75 48 -170 80q-99 33 -201 33q-103 0 -168 -31q-63 -30 -63 -90q0 -46 41 -89q41 -42 143 -95l332 -168q91 -46 157 -87q68 -42 119 -93q50 -50 77 -108
q28 -61 28 -130q0 -66 -21 -120q-22 -56 -56 -100q-33 -43 -83 -83q-43 -35 -100 -64q54 -51 85 -116q29 -61 29 -142q0 -99 -39 -170q-41 -75 -110 -124q-68 -48 -164 -76q-94 -27 -205 -27q-139 0 -264 32q-119 30 -217 85l104 237q82 -54 179 -82q91 -26 192 -26
q51 0 95 9q42 9 78 29q33 19 53 48t20 67q0 56 -53 109q-52 52 -183 119l-290 145q-174 88 -266 184q-95 100 -95 242q0 111 75 200t181 144q-57 53 -88 114q-31 62 -31 132zM881 360q6 -4 37 -19q24 -12 36 -19q73 39 117 88q45 50 45 112q0 40 -11 69q-12 32 -37 60
q-26 29 -68 59q-43 31 -103 60l-356 176q-69 -33 -118 -82q-46 -46 -46 -110q0 -78 46 -130q47 -53 155 -110z" />
    <glyph glyph-name="dieresis" unicode="&#xa8;" horiz-adv-x="915" 
d="M182 1638q67 0 110 -37q44 -38 44 -100q0 -66 -47 -104q-43 -37 -107 -37q-59 0 -105 37t-46 104q0 63 43 100t108 37zM733 1638q66 0 109 -37t43 -100q0 -69 -45 -104q-43 -37 -107 -37q-62 0 -106 37q-45 37 -45 104q0 63 43 100t108 37z" />
    <glyph glyph-name="copyright" unicode="&#xa9;" horiz-adv-x="1902" 
d="M92 829q0 190 67 351q66 159 183 273t273 177q158 64 337 64q176 0 334 -64q156 -63 273 -177q116 -113 184 -273q67 -158 67 -351q0 -191 -67 -349q-67 -159 -184 -271q-116 -112 -273 -175q-156 -63 -334 -63q-181 0 -337 63q-157 63 -273 175q-117 113 -183 271
q-67 161 -67 349zM260 829q0 -155 53 -287q51 -127 146 -225q91 -94 219 -145q127 -51 274 -51q148 0 275 51q128 51 219 145q92 95 144 225q52 129 52 287q0 161 -52 290t-144 224t-219 146q-128 51 -275 51t-274 -51t-219 -146q-96 -99 -146 -224q-53 -132 -53 -290z
M481 838q0 108 36 198q37 92 101 155q66 65 156 99q91 35 201 35q98 0 177 -23q82 -24 146 -65l-71 -178q-52 34 -115 54t-133 20q-60 0 -111 -21q-53 -22 -89 -58q-38 -38 -59 -92q-22 -57 -22 -124q0 -65 22 -123q20 -54 59 -94q37 -39 89 -60q49 -20 111 -20q74 0 132 19
q65 21 114 52l73 -174q-61 -39 -146 -64q-82 -24 -177 -24q-111 0 -201 36q-91 36 -156 100q-64 62 -101 154q-36 88 -36 198z" />
    <glyph glyph-name="ordfeminine" unicode="&#xaa;" horiz-adv-x="935" 
d="M588 1217q-22 5 -67 10q-33 4 -60 4q-68 0 -122 -17q-52 -16 -52 -65q0 -52 46 -71q45 -19 116 -19q67 0 139 18v140zM444 879q-73 0 -137 13q-66 13 -116 44q-48 29 -79 80q-30 50 -30 121q0 63 27 113t73 84q43 32 113 51q66 18 143 18q24 0 64 -3q42 -3 86 -9v16
q0 61 -50 79q-47 17 -124 17q-56 0 -126 -19q-75 -20 -145 -48l21 192q54 23 127 41q78 19 145 19q72 0 137 -17t110 -52q46 -35 73 -93q26 -55 26 -142v-434q-81 -30 -167 -50q-89 -21 -171 -21z" />
    <glyph glyph-name="guillemotleft" unicode="&#xab;" horiz-adv-x="1249" 
d="M53 590l320 524h301l-309 -522l307 -529h-297zM580 590l319 524h297l-307 -522l305 -529h-295z" />
    <glyph glyph-name="logicalnot" unicode="&#xac;" horiz-adv-x="1458" 
d="M1006 680h-912v266h1198v-719h-286v453z" />
    <glyph glyph-name="registered" unicode="&#xae;" horiz-adv-x="1902" 
d="M92 829q0 190 67 351q66 159 183 273t273 177q158 64 337 64q176 0 334 -64q156 -63 273 -177q116 -113 184 -273q67 -158 67 -351q0 -191 -67 -349q-67 -159 -184 -271q-116 -112 -273 -175q-156 -63 -334 -63q-181 0 -337 63q-157 63 -273 175q-117 113 -183 271
q-67 161 -67 349zM260 829q0 -155 53 -287q51 -127 146 -225q91 -94 219 -145q127 -51 274 -51q148 0 275 51q128 51 219 145q92 95 144 225q52 129 52 287q0 161 -52 290t-144 224t-219 146q-128 51 -275 51t-274 -51t-219 -146q-96 -99 -146 -224q-53 -132 -53 -290z
M809 750v-344h-197v911h318q88 0 163 -12q73 -12 130 -44q55 -31 87 -89q31 -56 31 -142q0 -99 -47 -160q-46 -59 -125 -88l215 -376h-221l-192 344h-29h-133zM1141 1030q0 60 -42 87q-44 28 -118 28h-172v-223h174q83 0 121 27q37 27 37 81z" />
    <glyph glyph-name="macron" unicode="&#xaf;" horiz-adv-x="663" 
d="M31 1421v176h602v-176h-602z" />
    <glyph glyph-name="degree" unicode="&#xb0;" horiz-adv-x="899" 
d="M61 1298q0 80 31 154q30 72 83 125q55 55 123 84q73 31 151 31q79 0 152 -31q68 -29 123 -84q54 -56 83 -125q31 -74 31 -154q0 -77 -31 -150q-30 -70 -83 -123t-123 -83q-73 -31 -152 -31q-78 0 -151 31q-70 30 -123 83t-83 123q-31 73 -31 150zM238 1298q0 -96 58 -160
q59 -65 153 -65q95 0 155 65q60 64 60 160q0 98 -60 164t-155 66t-153 -66q-58 -65 -58 -164z" />
    <glyph glyph-name="plusminus" unicode="&#xb1;" horiz-adv-x="1384" 
d="M549 614h-455v215h455v324h287v-324h452v-215h-452v-331h-287v331zM94 217h1192v-217h-1192v217z" />
    <glyph glyph-name="uni00B2" unicode="&#xb2;" horiz-adv-x="688" 
d="M324 1546q-47 0 -86 -15t-74 -44l-53 100q45 36 101 53q62 19 124 19q98 0 169 -47q70 -46 70 -144q0 -101 -76 -186q-74 -82 -225 -192h312v-107h-484v102l134 99q63 50 112 94q50 45 78 87q29 43 29 81q0 53 -39 77q-37 23 -92 23z" />
    <glyph glyph-name="uni00B3" unicode="&#xb3;" horiz-adv-x="702" 
d="M334 971q-64 0 -125 18t-107 53l54 101q36 -30 76 -44q45 -16 90 -16q64 0 110 24q47 24 47 73q0 54 -47 72q-46 18 -123 18h-18v108h16q79 0 118 17q38 17 38 63q0 44 -39 66q-38 22 -98 22q-48 0 -88 -15q-41 -15 -76 -44l-53 100q44 32 105 52q62 20 122 20
q107 0 177 -47q69 -46 69 -133q0 -54 -28 -96q-26 -39 -67 -56q48 -16 80 -53q33 -39 33 -107q0 -97 -75 -147q-74 -49 -191 -49z" />
    <glyph glyph-name="acute" unicode="&#xb4;" horiz-adv-x="587" 
d="M264 1374h-233l241 287h285z" />
    <glyph glyph-name="mu" unicode="&#xb5;" horiz-adv-x="1382" 
d="M147 -440q12 74 17 141q6 77 6 174v1278h287v-532q0 -186 59 -276q60 -91 174 -91q117 0 178 94q62 95 62 273v532h287v-1153h-256v203q-40 -93 -116 -157q-75 -63 -200 -69q-89 -2 -140 41t-79 107v-223q0 -95 -5 -190q-4 -84 -15 -152h-259z" />
    <glyph glyph-name="paragraph" unicode="&#xb6;" horiz-adv-x="1323" 
d="M68 1221q0 103 40 184t112 138t176 87q107 31 233 31h528v-1831h-194v1647h-250v-1647h-195v956q-77 6 -160 34q-76 26 -144 81q-64 53 -105 132q-41 80 -41 188z" />
    <glyph glyph-name="periodcentered" unicode="&#xb7;" horiz-adv-x="645" 
d="M324 412q-73 0 -122 49q-50 50 -50 121q0 68 50 118t122 50q68 0 118 -50t50 -118q0 -71 -50 -121q-49 -49 -118 -49z" />
    <glyph glyph-name="cedilla" unicode="&#xb8;" horiz-adv-x="516" 
d="M41 -313q20 -9 74 -22q47 -11 92 -11q50 0 89 14q42 15 42 58q0 44 -43 59q-41 14 -96 14q-35 0 -75 -5q-35 -4 -58 -9l129 217h112l-69 -117q38 2 72 -2q44 -5 75 -21q35 -18 57 -48q23 -31 23 -80q0 -51 -21 -87q-21 -37 -55 -60q-31 -22 -80 -33q-47 -11 -94 -11
q-42 0 -84 5q-33 4 -82 22z" />
    <glyph glyph-name="uni00B9" unicode="&#xb9;" horiz-adv-x="471" 
d="M254 1524l-152 -35v104l267 60v-670h-115v541z" />
    <glyph glyph-name="ordmasculine" unicode="&#xba;" horiz-adv-x="956" 
d="M477 877q-89 0 -164 31q-74 30 -131 86q-55 54 -87 128q-32 75 -32 160q0 83 32 158q31 74 87 129q56 56 131 87q78 32 164 32t164 -32q74 -30 132 -87q56 -55 88 -129q32 -75 32 -158q0 -85 -32 -160t-88 -128q-59 -56 -132 -86q-75 -31 -164 -31zM477 1067
q100 0 157 60q56 59 56 155q0 90 -56 152q-57 63 -157 63q-97 0 -154 -63t-57 -152q0 -95 57 -155t154 -60z" />
    <glyph glyph-name="guillemotright" unicode="&#xbb;" horiz-adv-x="1249" 
d="M874 63h-296l307 529l-310 522h302l319 -524zM350 63h-295l305 529l-307 522h297l320 -524z" />
    <glyph glyph-name="onequarter" unicode="&#xbc;" horiz-adv-x="2021" 
d="M1817 309v-145h-107v-164h-184v164h-441v80l447 700h178v-635h107zM1526 678h-4l-211 -369h215v369zM1456 1528l-827 -1591l-142 71l830 1589zM205 1389v155h327v-926h-196v771h-131z" />
    <glyph glyph-name="onehalf" unicode="&#xbd;" horiz-adv-x="2021" 
d="M1362 1528l-827 -1591l-142 71l830 1589zM205 1389v155h327v-926h-196v771h-131zM1817 158v-158h-676l256 297l63 74q34 39 71 91q32 44 58 95q25 48 25 86q0 65 -33 109q-33 43 -96 43q-31 0 -57 -16q-22 -14 -38 -39t-23 -51q-7 -24 -5 -54h-207q5 70 28 125
q24 58 64 99q42 43 101 67q60 24 137 24q68 0 127 -22t103 -63q46 -43 70 -94q25 -53 25 -118q0 -103 -52 -183q-52 -81 -122 -155l-147 -157h328z" />
    <glyph glyph-name="threequarters" unicode="&#xbe;" horiz-adv-x="2021" 
d="M1817 309v-145h-107v-164h-184v164h-441v80l447 700h178v-635h107zM1526 678h-4l-211 -369h215v369zM1563 1528l-828 -1591l-141 71l829 1589zM242 1319q12 120 92 193q81 73 215 73q130 0 209 -69q80 -69 80 -191q0 -52 -23 -107q-22 -54 -74 -87q69 -29 100 -96
q29 -64 29 -130q0 -69 -25 -123t-70 -93q-43 -37 -105 -58t-133 -21q-68 0 -128 23q-61 24 -103 61q-43 38 -70 93q-26 53 -31 116h196q5 -56 41 -95q37 -40 103 -40q65 0 100 47t35 100q0 28 -9 55t-28 49q-19 23 -45 34q-26 12 -59 10l-37 -2v129h22q61 0 94 35t33 94
q0 49 -29 82q-30 35 -85 35q-53 0 -80 -37q-28 -38 -29 -80h-186z" />
    <glyph glyph-name="questiondown" unicode="&#xbf;" horiz-adv-x="1163" 
d="M700 1255q38 0 72 -12q33 -12 62 -34q26 -20 43 -53q16 -31 16 -71q0 -39 -16 -70q-17 -32 -43 -54q-28 -23 -62 -35q-37 -13 -72 -13q-34 0 -71 13q-36 13 -63 35q-28 23 -44 54t-16 70q0 40 16 71q17 32 44 53q28 22 63 34t71 12zM707 -180q-60 0 -114 17
q-58 18 -100 50q-46 35 -72 81q-28 50 -28 108q0 75 34 125q35 52 91 83q57 32 132 45q72 13 159 13h25v403h-287v-186q-94 -23 -175 -63q-82 -40 -145 -105q-60 -62 -98 -148q-37 -84 -37 -194q0 -117 45 -211q46 -96 124 -161q81 -67 186 -102q108 -36 231 -36
q119 0 207 20q87 20 155 48l37 297q-83 -36 -180 -61q-91 -23 -190 -23z" />
    <glyph glyph-name="Agrave" unicode="&#xc0;" horiz-adv-x="1628" 
d="M1608 0h-310l-141 391h-688l-139 -391h-310l615 1661h358zM567 668h492l-246 690zM401 2017h287l240 -286h-234z" />
    <glyph glyph-name="Aacute" unicode="&#xc1;" horiz-adv-x="1628" 
d="M1608 0h-310l-141 391h-688l-139 -391h-310l615 1661h358zM567 668h492l-246 690zM899 1731h-233l241 286h285z" />
    <glyph glyph-name="Acircumflex" unicode="&#xc2;" horiz-adv-x="1628" 
d="M1608 0h-310l-141 391h-688l-139 -391h-310l615 1661h358zM567 668h492l-246 690zM1237 1731h-240l-180 172l-186 -172h-240l277 286h297z" />
    <glyph glyph-name="Atilde" unicode="&#xc3;" horiz-adv-x="1628" 
d="M1608 0h-310l-141 391h-688l-139 -391h-310l615 1661h358zM567 668h492l-246 690zM954 1896q51 0 74 29q22 28 33 82h139q-10 -133 -74 -200q-63 -66 -155 -66q-53 0 -91 17q-47 21 -75 38q-14 9 -68 38q-31 17 -69 17q-51 0 -72 -28q-20 -27 -31 -82h-141q10 121 74 194
q63 72 157 72q53 0 91 -17q43 -19 74 -38q8 -5 66 -38q31 -18 68 -18z" />
    <glyph glyph-name="Adieresis" unicode="&#xc4;" horiz-adv-x="1628" 
d="M1608 0h-310l-141 391h-688l-139 -391h-310l615 1661h358zM567 668h492l-246 690zM537 2013q65 0 109 -38t44 -99q0 -66 -47 -104q-43 -37 -106 -37q-60 0 -106 37t-46 104q0 62 43 99q44 38 109 38zM1087 2013q65 0 109 -38q43 -37 43 -99q0 -70 -45 -104
q-43 -37 -107 -37q-62 0 -106 37q-45 38 -45 104q0 62 43 99q44 38 108 38z" />
    <glyph glyph-name="Aring" unicode="&#xc5;" horiz-adv-x="1628" 
d="M1608 0h-310l-141 391h-688l-139 -391h-310l615 1661h358zM567 668h492l-246 690zM813 2142q90 0 153 -57q62 -56 62 -148t-61 -149t-154 -57t-156 57t-63 149q0 91 63 148t156 57zM813 2052q-46 0 -83 -32q-36 -32 -36 -83q0 -54 36 -84t83 -30t81 30t34 84q0 52 -34 83
q-35 32 -81 32z" />
    <glyph glyph-name="AE" unicode="&#xc6;" horiz-adv-x="2238" 
d="M2101 1661v-275h-766v-395h695v-278h-695v-439h770v-274h-1065v391h-471l-239 -391h-350l1060 1661h1061zM741 668h299v485z" />
    <glyph glyph-name="Ccedilla" unicode="&#xc7;" horiz-adv-x="1585" 
d="M627 -313q21 -10 73 -22q47 -11 93 -11q50 0 89 14q42 15 42 58q0 44 -43 59q-41 14 -97 14q-34 0 -74 -5q-37 -5 -59 -9l121 207q-159 27 -284 100q-126 73 -214 184t-135 252q-47 143 -47 306q0 182 61 341q60 155 172 272q110 115 271 180q160 65 356 65
q157 0 301 -39q143 -39 250 -105l-114 -260q-85 53 -196 89q-103 34 -228 34q-111 0 -214 -35q-104 -35 -179 -106q-76 -71 -121 -180q-45 -108 -45 -256t45 -256q47 -112 121 -182q77 -73 179 -107q103 -35 214 -35q125 0 228 34q109 36 196 91l114 -262
q-108 -67 -250 -104q-146 -38 -301 -38q-25 0 -38 1q-7 1 -18.5 2.5t-16.5 1.5l-56 -95q39 2 73 -2q44 -5 75 -21q35 -18 57 -48q23 -31 23 -80q0 -51 -21 -87q-21 -37 -55 -60q-31 -22 -80 -33q-47 -11 -94 -11q-42 0 -84 5q-33 4 -82 22z" />
    <glyph glyph-name="Egrave" unicode="&#xc8;" horiz-adv-x="1402" 
d="M205 1661h1061v-275h-766v-395h694v-278h-694v-439h770v-274h-1065v1661zM344 2017h287l239 -286h-233z" />
    <glyph glyph-name="Eacute" unicode="&#xc9;" horiz-adv-x="1402" 
d="M205 1661h1061v-275h-766v-395h694v-278h-694v-439h770v-274h-1065v1661zM813 1731h-233l241 286h285z" />
    <glyph glyph-name="Ecircumflex" unicode="&#xca;" horiz-adv-x="1402" 
d="M205 1661h1061v-275h-766v-395h694v-278h-694v-439h770v-274h-1065v1661zM1159 1731h-239l-181 172l-186 -172h-240l277 286h297z" />
    <glyph glyph-name="Edieresis" unicode="&#xcb;" horiz-adv-x="1402" 
d="M205 1661h1061v-275h-766v-395h694v-278h-694v-439h770v-274h-1065v1661zM451 2013q65 0 109 -38t44 -99q0 -66 -47 -104q-43 -37 -106 -37q-60 0 -106 37t-46 104q0 62 43 99q44 38 109 38zM1001 2013q65 0 109 -38q43 -37 43 -99q0 -70 -45 -104q-43 -37 -107 -37
q-62 0 -106 37q-45 38 -45 104q0 62 43 99q44 38 108 38z" />
    <glyph glyph-name="Igrave" unicode="&#xcc;" horiz-adv-x="704" 
d="M205 0v1661h295v-1661h-295zM-57 2017h286l240 -286h-233z" />
    <glyph glyph-name="Iacute" unicode="&#xcd;" horiz-adv-x="704" 
d="M205 0v1661h295v-1661h-295zM430 1731h-233l241 286h285z" />
    <glyph glyph-name="Icircumflex" unicode="&#xce;" horiz-adv-x="704" 
d="M205 0v1661h295v-1661h-295zM778 1731h-239l-181 172l-186 -172h-240l277 286h297z" />
    <glyph glyph-name="Idieresis" unicode="&#xcf;" horiz-adv-x="704" 
d="M205 0v1661h295v-1661h-295zM76 2013q65 0 109 -38t44 -99q0 -66 -47 -104q-43 -37 -106 -37q-60 0 -106 37t-46 104q0 62 43 99q44 38 109 38zM627 2013q64 0 108 -38q43 -37 43 -99q0 -70 -45 -104q-43 -37 -106 -37t-107 37q-45 38 -45 104q0 62 43 99q44 38 109 38z
" />
    <glyph glyph-name="Eth" unicode="&#xd0;" horiz-adv-x="1755" 
d="M260 717h-246v274h246v670h438q209 0 384 -52q178 -53 307 -155t201 -257q73 -157 73 -357q0 -201 -71 -358t-196 -264t-300 -163q-172 -55 -383 -55h-453v717zM694 274q150 0 272 30q124 31 208 97q85 67 132 176q46 107 46 263q0 144 -47 249q-46 102 -133 169
q-90 69 -203 98q-119 30 -264 30h-148v-395h387v-274h-387v-443h137z" />
    <glyph glyph-name="Ntilde" unicode="&#xd1;" horiz-adv-x="1759" 
d="M496 1384v-1384h-291v1661h454l607 -1385v1385h288v-1661h-452zM1026 1896q51 0 74 29q22 28 33 82h139q-10 -133 -74 -200q-63 -66 -156 -66q-53 0 -91 17q-43 19 -74 38q-14 9 -68 38q-31 17 -70 17q-50 0 -71 -28q-20 -27 -31 -82h-141q10 123 73 194q63 72 158 72
q53 0 91 -17q43 -19 74 -38q23 -14 65 -38q31 -18 69 -18z" />
    <glyph glyph-name="Ograve" unicode="&#xd2;" horiz-adv-x="1908" 
d="M1817 834q0 -181 -64 -339q-63 -157 -178 -273q-113 -114 -272 -181q-157 -66 -349 -66q-190 0 -348 66q-159 67 -272 181q-115 116 -178 273q-64 158 -64 339q0 177 64 337q63 158 178 273t272 181q160 67 348 67q189 0 349 -67q157 -66 272 -181t178 -273
q64 -160 64 -337zM1505 834q0 130 -42 237q-42 106 -115 182q-74 77 -174 117q-102 41 -220 41q-115 0 -217 -41q-101 -40 -174 -117q-75 -78 -116 -182t-41 -237q0 -134 41 -238t116 -182q73 -76 174 -117q102 -41 217 -41q118 0 220 41q100 41 174 117q73 76 115 182
t42 238zM541 2017h286l240 -286h-233z" />
    <glyph glyph-name="Oacute" unicode="&#xd3;" horiz-adv-x="1908" 
d="M1817 834q0 -181 -64 -339q-63 -157 -178 -273q-113 -114 -272 -181q-157 -66 -349 -66q-190 0 -348 66q-159 67 -272 181q-115 116 -178 273q-64 158 -64 339q0 177 64 337q63 158 178 273t272 181q160 67 348 67q189 0 349 -67q157 -66 272 -181t178 -273
q64 -160 64 -337zM1505 834q0 130 -42 237q-42 106 -115 182q-74 77 -174 117q-102 41 -220 41q-115 0 -217 -41q-101 -40 -174 -117q-75 -78 -116 -182t-41 -237q0 -134 41 -238t116 -182q73 -76 174 -117q102 -41 217 -41q118 0 220 41q100 41 174 117q73 76 115 182
t42 238zM1063 1731h-234l242 286h285z" />
    <glyph glyph-name="Ocircumflex" unicode="&#xd4;" horiz-adv-x="1908" 
d="M1817 834q0 -181 -64 -339q-63 -157 -178 -273q-113 -114 -272 -181q-157 -66 -349 -66q-190 0 -348 66q-159 67 -272 181q-115 116 -178 273q-64 158 -64 339q0 177 64 337q63 158 178 273t272 181q160 67 348 67q189 0 349 -67q157 -66 272 -181t178 -273
q64 -160 64 -337zM1505 834q0 130 -42 237q-42 106 -115 182q-74 77 -174 117q-102 41 -220 41q-115 0 -217 -41q-101 -40 -174 -117q-75 -78 -116 -182t-41 -237q0 -134 41 -238t116 -182q73 -76 174 -117q102 -41 217 -41q118 0 220 41q100 41 174 117q73 76 115 182
t42 238zM1378 1729h-239l-181 172l-186 -172h-240l277 286h297z" />
    <glyph glyph-name="Otilde" unicode="&#xd5;" horiz-adv-x="1908" 
d="M1817 834q0 -181 -64 -339q-63 -157 -178 -273q-113 -114 -272 -181q-157 -66 -349 -66q-190 0 -348 66q-159 67 -272 181q-115 116 -178 273q-64 158 -64 339q0 177 64 337q63 158 178 273t272 181q160 67 348 67q189 0 349 -67q157 -66 272 -181t178 -273
q64 -160 64 -337zM1505 834q0 130 -42 237q-42 106 -115 182q-74 77 -174 117q-102 41 -220 41q-115 0 -217 -41q-101 -40 -174 -117q-75 -78 -116 -182t-41 -237q0 -134 41 -238t116 -182q73 -76 174 -117q102 -41 217 -41q118 0 220 41q100 41 174 117q73 76 115 182
t42 238zM1092 1896q50 0 73 29q22 28 33 82h139q-11 -135 -73 -200q-63 -66 -156 -66q-53 0 -91 17q-47 21 -75 38q-14 9 -68 38q-31 17 -69 17q-51 0 -72 -28q-20 -27 -31 -82h-141q10 121 74 194q63 72 158 72q53 0 91 -17q39 -17 73 -38q8 -5 66 -38q31 -18 69 -18z" />
    <glyph glyph-name="Odieresis" unicode="&#xd6;" horiz-adv-x="1908" 
d="M1817 834q0 -181 -64 -339q-63 -157 -178 -273q-113 -114 -272 -181q-157 -66 -349 -66q-190 0 -348 66q-159 67 -272 181q-115 116 -178 273q-64 158 -64 339q0 177 64 337q63 158 178 273t272 181q160 67 348 67q189 0 349 -67q157 -66 272 -181t178 -273
q64 -160 64 -337zM1505 834q0 130 -42 237q-42 106 -115 182q-74 77 -174 117q-102 41 -220 41q-115 0 -217 -41q-101 -40 -174 -117q-75 -78 -116 -182t-41 -237q0 -134 41 -238t116 -182q73 -76 174 -117q102 -41 217 -41q118 0 220 41q100 41 174 117q73 76 115 182
t42 238zM676 2013q65 0 109 -38t44 -99q0 -66 -47 -104q-43 -37 -106 -37q-60 0 -106 37t-46 104q0 62 43 99q44 38 109 38zM1227 2013q64 0 108 -38q43 -37 43 -99q0 -70 -45 -104q-43 -37 -106 -37t-107 37q-45 38 -45 104q0 62 43 99q44 38 109 38z" />
    <glyph glyph-name="multiply" unicode="&#xd7;" horiz-adv-x="1202" 
d="M39 190l393 392l-393 393l172 170l389 -393l393 393l170 -170l-391 -393l391 -392l-170 -170l-393 392l-389 -392z" />
    <glyph glyph-name="Oslash" unicode="&#xd8;" horiz-adv-x="1908" 
d="M299 260q-99 113 -153 259q-54 147 -54 315q0 177 64 337q63 158 178 273t272 181q160 67 348 67q135 0 258 -35q120 -34 222 -101l211 240l159 -131l-211 -242q106 -113 165 -265q59 -151 59 -324q0 -181 -64 -339q-63 -157 -178 -273q-113 -114 -272 -181
q-157 -66 -349 -66q-144 0 -270 38q-119 36 -229 108l-201 -230l-162 134zM1505 834q0 109 -28 199q-27 88 -82 163l-748 -852q130 -88 307 -88q118 0 220 41q100 41 174 117q73 76 115 182t42 238zM406 834q0 -102 24 -188q23 -81 72 -154l739 843q-128 76 -287 76
q-115 0 -217 -41q-101 -40 -174 -117q-75 -78 -116 -182t-41 -237z" />
    <glyph glyph-name="Ugrave" unicode="&#xd9;" horiz-adv-x="1794" 
d="M897 -25q-194 0 -330 53t-220 143q-85 91 -124 215q-39 125 -39 265v1010h295v-942q0 -111 22 -202q21 -87 70 -145t129 -88t197 -30q115 0 195 30t129 88q48 57 71 145q23 89 23 202v942h295v-1010q0 -140 -39 -265q-39 -124 -124 -215q-84 -90 -220 -143t-330 -53z
M563 2017h287l240 -286h-234z" />
    <glyph glyph-name="Uacute" unicode="&#xda;" horiz-adv-x="1794" 
d="M897 -25q-194 0 -330 53t-220 143q-85 91 -124 215q-39 125 -39 265v1010h295v-942q0 -111 22 -202q21 -87 70 -145t129 -88t197 -30q115 0 195 30t129 88q48 57 71 145q23 89 23 202v942h295v-1010q0 -140 -39 -265q-39 -124 -124 -215q-84 -90 -220 -143t-330 -53z
M961 1731h-234l242 286h284z" />
    <glyph glyph-name="Ucircumflex" unicode="&#xdb;" horiz-adv-x="1794" 
d="M897 -25q-194 0 -330 53t-220 143q-85 91 -124 215q-39 125 -39 265v1010h295v-942q0 -111 22 -202q21 -87 70 -145t129 -88t197 -30q115 0 195 30t129 88q48 57 71 145q23 89 23 202v942h295v-1010q0 -140 -39 -265q-39 -124 -124 -215q-84 -90 -220 -143t-330 -53z
M1323 1731h-240l-180 172l-186 -172h-240l277 286h297z" />
    <glyph glyph-name="Udieresis" unicode="&#xdc;" horiz-adv-x="1794" 
d="M897 -25q-194 0 -330 53t-220 143q-85 91 -124 215q-39 125 -39 265v1010h295v-942q0 -111 22 -202q21 -87 70 -145t129 -88t197 -30q115 0 195 30t129 88q48 57 71 145q23 89 23 202v942h295v-1010q0 -140 -39 -265q-39 -124 -124 -215q-84 -90 -220 -143t-330 -53z
M623 2013q65 0 109 -38t44 -99q0 -66 -47 -104q-43 -37 -106 -37q-60 0 -106 37t-46 104q0 62 43 99q44 38 109 38zM1174 2013q64 0 108 -38q43 -37 43 -99q0 -70 -45 -104q-43 -37 -106 -37t-107 37q-45 38 -45 104q0 62 43 99q44 38 109 38z" />
    <glyph glyph-name="Yacute" unicode="&#xdd;" horiz-adv-x="1536" 
d="M1163 1661h342l-587 -1038v-623h-297v623l-590 1038h342l395 -748zM834 1731h-234l242 286h284z" />
    <glyph glyph-name="Thorn" unicode="&#xde;" horiz-adv-x="1517" 
d="M500 311v-311h-295v1661h295v-309h327q162 0 275 -43q115 -44 188 -114q74 -71 110 -162q36 -92 36 -189q0 -106 -37 -201q-38 -98 -113 -170q-79 -75 -190 -118q-115 -44 -269 -44h-327zM500 1077v-491h264q80 0 146 12t115 41t74 78t25 121q0 123 -88 181t-272 58h-264
z" />
    <glyph glyph-name="germandbls" unicode="&#xdf;" horiz-adv-x="1597" 
d="M166 0v1059q0 168 42 288t124 196q84 78 200 113q118 36 273 36q120 0 232 -28q107 -27 186 -83q78 -55 123 -138t45 -194q0 -53 -15 -103q-15 -51 -39 -92q-25 -43 -58 -75q-35 -33 -73 -51q57 -17 109 -51q51 -34 95 -90q42 -54 69 -128q26 -71 26 -167
q0 -135 -48 -234q-47 -97 -131 -161q-80 -61 -196 -92q-113 -30 -241 -30q-55 0 -143 8t-154 19l55 279q44 -10 98 -18q50 -7 107 -7q73 0 131 11q64 12 113 39q48 26 79 77q29 48 29 125q0 70 -32 117q-31 46 -88 73q-54 26 -131 38q-75 12 -160 12h-54v264h43
q155 0 231 46q77 47 77 146t-85 154t-214 55q-95 0 -159 -21q-63 -21 -105 -67q-39 -44 -58 -115q-18 -69 -18 -163v-1047h-285z" />
    <glyph glyph-name="agrave" unicode="&#xe0;" horiz-adv-x="1294" 
d="M864 500q-31 8 -94 17q-49 7 -100 7q-59 0 -104 -7q-52 -8 -85 -24q-36 -17 -58 -47t-22 -69q0 -80 73 -112t179 -32q42 0 109 9q56 8 102 24v234zM649 -25q-109 0 -208 21q-102 22 -174 65q-74 44 -120 118q-45 72 -45 179q0 97 40 170q40 74 111 123q71 50 170 74
q103 25 216 25q27 0 103 -4q60 -3 122 -13v17q0 99 -73 133q-75 35 -193 35q-35 0 -98 -9q-59 -8 -108 -22q-54 -15 -105 -33q-49 -17 -94 -39l36 293q67 34 179 60q110 26 229 26q107 0 205 -25q93 -24 163 -77q68 -53 107 -142q39 -88 39 -213v-671q-108 -42 -242 -67
q-130 -24 -260 -24zM303 1661h287l239 -287h-233z" />
    <glyph glyph-name="aacute" unicode="&#xe1;" horiz-adv-x="1294" 
d="M864 500q-31 8 -94 17q-49 7 -100 7q-59 0 -104 -7q-52 -8 -85 -24q-36 -17 -58 -47t-22 -69q0 -80 73 -112t179 -32q42 0 109 9q56 8 102 24v234zM649 -25q-109 0 -208 21q-102 22 -174 65q-74 44 -120 118q-45 72 -45 179q0 97 40 170q40 74 111 123q71 50 170 74
q103 25 216 25q27 0 103 -4q60 -3 122 -13v17q0 99 -73 133q-75 35 -193 35q-35 0 -98 -9q-59 -8 -108 -22q-54 -15 -105 -33q-49 -17 -94 -39l36 293q67 34 179 60q110 26 229 26q107 0 205 -25q93 -24 163 -77q68 -53 107 -142q39 -88 39 -213v-671q-108 -42 -242 -67
q-130 -24 -260 -24zM741 1374h-233l242 287h284z" />
    <glyph glyph-name="acircumflex" unicode="&#xe2;" horiz-adv-x="1294" 
d="M864 500q-31 8 -94 17q-49 7 -100 7q-59 0 -104 -7q-52 -8 -85 -24q-36 -17 -58 -47t-22 -69q0 -80 73 -112t179 -32q42 0 109 9q56 8 102 24v234zM649 -25q-109 0 -208 21q-102 22 -174 65q-74 44 -120 118q-45 72 -45 179q0 97 40 170q40 74 111 123q71 50 170 74
q103 25 216 25q27 0 103 -4q60 -3 122 -13v17q0 99 -73 133q-75 35 -193 35q-35 0 -98 -9q-59 -8 -108 -22q-54 -15 -105 -33q-49 -17 -94 -39l36 293q67 34 179 60q110 26 229 26q107 0 205 -25q93 -24 163 -77q68 -53 107 -142q39 -88 39 -213v-671q-108 -42 -242 -67
q-130 -24 -260 -24zM1090 1374h-240l-180 172l-187 -172h-239l276 287h297z" />
    <glyph glyph-name="atilde" unicode="&#xe3;" horiz-adv-x="1294" 
d="M864 500q-31 8 -94 17q-49 7 -100 7q-59 0 -104 -7q-52 -8 -85 -24q-36 -17 -58 -47t-22 -69q0 -80 73 -112t179 -32q42 0 109 9q56 8 102 24v234zM649 -25q-109 0 -208 21q-102 22 -174 65q-74 44 -120 118q-45 72 -45 179q0 97 40 170q40 74 111 123q71 50 170 74
q103 25 216 25q27 0 103 -4q60 -3 122 -13v17q0 99 -73 133q-75 35 -193 35q-35 0 -98 -9q-59 -8 -108 -22q-54 -15 -105 -33q-49 -17 -94 -39l36 293q67 34 179 60q110 26 229 26q107 0 205 -25q93 -24 163 -77q68 -53 107 -142q39 -88 39 -213v-671q-108 -42 -242 -67
q-130 -24 -260 -24zM821 1536q51 0 74 29q22 28 33 82h139q-10 -133 -74 -200t-155 -67q-52 0 -92 18q-43 19 -74 38q-14 9 -68 38q-31 17 -69 17q-51 0 -72 -29q-20 -27 -31 -82h-141q10 122 74 195q63 72 157 72q51 0 91 -18q43 -19 74 -38q8 -5 66 -38q30 -17 68 -17z
" />
    <glyph glyph-name="adieresis" unicode="&#xe4;" horiz-adv-x="1294" 
d="M864 500q-31 8 -94 17q-49 7 -100 7q-59 0 -104 -7q-52 -8 -85 -24q-36 -17 -58 -47t-22 -69q0 -80 73 -112t179 -32q42 0 109 9q56 8 102 24v234zM649 -25q-109 0 -208 21q-102 22 -174 65q-74 44 -120 118q-45 72 -45 179q0 97 40 170q40 74 111 123q71 50 170 74
q103 25 216 25q27 0 103 -4q60 -3 122 -13v17q0 99 -73 133q-75 35 -193 35q-35 0 -98 -9q-59 -8 -108 -22q-54 -15 -105 -33q-49 -17 -94 -39l36 293q67 34 179 60q110 26 229 26q107 0 205 -25q93 -24 163 -77q68 -53 107 -142q39 -88 39 -213v-671q-108 -42 -242 -67
q-130 -24 -260 -24zM412 1638q66 0 109 -37q44 -38 44 -100q0 -66 -47 -104q-43 -37 -106 -37q-60 0 -106 37t-46 104q0 63 43 100t109 37zM963 1638q65 0 108 -37t43 -100q0 -69 -45 -104q-43 -37 -106 -37t-107 37q-45 37 -45 104q0 63 43 100t109 37z" />
    <glyph glyph-name="aring" unicode="&#xe5;" horiz-adv-x="1294" 
d="M864 500q-31 8 -94 17q-49 7 -100 7q-59 0 -104 -7q-52 -8 -85 -24q-36 -17 -58 -47t-22 -69q0 -80 73 -112t179 -32q42 0 109 9q56 8 102 24v234zM649 -25q-109 0 -208 21q-102 22 -174 65q-74 44 -120 118q-45 72 -45 179q0 97 40 170q40 74 111 123q71 50 170 74
q103 25 216 25q27 0 103 -4q60 -3 122 -13v17q0 99 -73 133q-75 35 -193 35q-35 0 -98 -9q-59 -8 -108 -22q-54 -15 -105 -33q-49 -17 -94 -39l36 293q67 34 179 60q110 26 229 26q107 0 205 -25q93 -24 163 -77q68 -53 107 -142q39 -88 39 -213v-671q-108 -42 -242 -67
q-130 -24 -260 -24zM680 1737q89 0 153 -58q62 -56 62 -147q0 -93 -61 -150q-62 -57 -154 -57q-93 0 -156 57t-63 150q0 90 63 147q64 58 156 58zM680 1647q-46 0 -83 -32q-36 -31 -36 -83q0 -54 36 -84q37 -31 83 -31q45 0 81 31q34 30 34 84q0 52 -34 83q-35 32 -81 32z
" />
    <glyph glyph-name="ae" unicode="&#xe6;" horiz-adv-x="2088" 
d="M1495 256q42 0 95 8q44 7 97 22q48 14 85 31t61 41l127 -256q-94 -52 -213 -89q-123 -38 -291 -38q-102 0 -194 28q-85 26 -160 79q-101 -48 -213 -77q-114 -30 -240 -30q-109 0 -208 21q-102 22 -174 65q-74 44 -120 118q-45 72 -45 179q0 97 40 170q40 74 111 123
q71 50 170 74q103 25 216 25q27 0 103 -4q60 -3 122 -13v17q0 99 -73 133q-75 35 -193 35q-35 0 -98 -9q-59 -8 -108 -22q-54 -15 -105 -33q-49 -17 -94 -39l36 293q67 34 179 60q110 26 229 26q138 0 237 -37q100 -37 160 -123q72 75 176 118q102 42 226 42q132 0 244 -47
q113 -47 192 -138t123 -223q43 -129 37 -297h-914q29 -119 120 -176q92 -57 226 -57h31zM864 500q-31 8 -94 17q-49 7 -100 7q-59 0 -104 -7q-52 -8 -85 -24q-36 -17 -58 -47t-22 -69q0 -80 73 -112t179 -32q42 0 109 9q56 8 102 24v234zM1432 940q-118 0 -197 -60
q-80 -60 -107 -153h603q-23 107 -103 160t-196 53z" />
    <glyph glyph-name="ccedilla" unicode="&#xe7;" horiz-adv-x="1142" 
d="M383 -313q20 -9 74 -22q47 -11 92 -11q50 0 89 14q42 15 42 58q0 44 -43 59q-41 14 -96 14q-35 0 -75 -5q-35 -4 -58 -9l122 207q-97 23 -187 78q-82 50 -146 130q-62 77 -96 175q-33 95 -33 209q0 132 46 242q47 112 129 194q81 81 196 128q113 46 247 46q115 0 215 -25
q95 -24 184 -69l-114 -258q-55 32 -125 52q-66 19 -148 19q-76 0 -135 -23t-104 -68q-42 -42 -67 -104q-23 -58 -23 -134t23 -134q25 -62 67 -104t104 -66q61 -24 135 -24q80 0 148 18q64 17 125 54l114 -260q-89 -45 -184 -69q-96 -24 -215 -24q-19 0 -27 1t-24 1l-55 -92
q38 2 72 -2q44 -5 75 -21q35 -18 57 -48q23 -31 23 -80q0 -51 -21 -87q-21 -37 -55 -60q-31 -22 -80 -33q-47 -11 -94 -11q-42 0 -84 5q-33 4 -82 22z" />
    <glyph glyph-name="egrave" unicode="&#xe8;" horiz-adv-x="1333" 
d="M739 256q43 0 96 8q42 6 96 22q48 14 85 31t61 41l127 -256q-94 -52 -213 -89q-123 -38 -291 -38q-136 0 -253 47q-116 47 -200 128q-86 83 -132 193q-47 112 -47 241q0 132 48 245t131 194q82 81 194 126q111 45 239 45q133 0 245 -47t191 -138t123 -223
q43 -129 37 -297h-914q29 -119 120 -176q92 -57 227 -57h30zM676 940q-118 0 -197 -60q-78 -59 -106 -153h602q-23 107 -103 160t-196 53zM322 1661h286l240 -287h-234z" />
    <glyph glyph-name="eacute" unicode="&#xe9;" horiz-adv-x="1333" 
d="M739 256q43 0 96 8q42 6 96 22q48 14 85 31t61 41l127 -256q-94 -52 -213 -89q-123 -38 -291 -38q-136 0 -253 47q-116 47 -200 128q-86 83 -132 193q-47 112 -47 241q0 132 48 245t131 194q82 81 194 126q111 45 239 45q133 0 245 -47t191 -138t123 -223
q43 -129 37 -297h-914q29 -119 120 -176q92 -57 227 -57h30zM676 940q-118 0 -197 -60q-78 -59 -106 -153h602q-23 107 -103 160t-196 53zM766 1374h-234l242 287h285z" />
    <glyph glyph-name="ecircumflex" unicode="&#xea;" horiz-adv-x="1333" 
d="M739 256q43 0 96 8q42 6 96 22q48 14 85 31t61 41l127 -256q-94 -52 -213 -89q-123 -38 -291 -38q-136 0 -253 47q-116 47 -200 128q-86 83 -132 193q-47 112 -47 241q0 132 48 245t131 194q82 81 194 126q111 45 239 45q133 0 245 -47t191 -138t123 -223
q43 -129 37 -297h-914q29 -119 120 -176q92 -57 227 -57h30zM1104 1374h-240l-180 172l-186 -172h-240l277 287h296zM676 940q-118 0 -197 -60q-78 -59 -106 -153h602q-23 107 -103 160t-196 53z" />
    <glyph glyph-name="edieresis" unicode="&#xeb;" horiz-adv-x="1333" 
d="M739 256q43 0 96 8q42 6 96 22q48 14 85 31t61 41l127 -256q-94 -52 -213 -89q-123 -38 -291 -38q-136 0 -253 47q-116 47 -200 128q-86 83 -132 193q-47 112 -47 241q0 132 48 245t131 194q82 81 194 126q111 45 239 45q133 0 245 -47t191 -138t123 -223
q43 -129 37 -297h-914q29 -119 120 -176q92 -57 227 -57h30zM676 940q-118 0 -197 -60q-78 -59 -106 -153h602q-23 107 -103 160t-196 53zM426 1638q67 0 110 -37q44 -38 44 -100q0 -65 -48 -104q-43 -37 -106 -37q-59 0 -105 37q-47 38 -47 104q0 63 43 100t109 37z
M977 1638q65 0 108 -37t43 -100q0 -69 -45 -104q-43 -37 -106 -37t-107 37q-45 37 -45 104q0 63 43 100t109 37z" />
    <glyph glyph-name="igrave" unicode="&#xec;" horiz-adv-x="616" 
d="M166 0v1153h287v-1153h-287zM-39 1661h287l239 -287h-233z" />
    <glyph glyph-name="iacute" unicode="&#xed;" horiz-adv-x="616" 
d="M166 0v1153h287v-1153h-287zM354 1374h-233l241 287h285z" />
    <glyph glyph-name="icircumflex" unicode="&#xee;" horiz-adv-x="616" 
d="M166 0v1153h287v-1153h-287zM731 1374h-239l-181 172l-186 -172h-240l277 287h297z" />
    <glyph glyph-name="idieresis" unicode="&#xef;" horiz-adv-x="616" 
d="M166 0v1153h287v-1153h-287zM33 1638q66 0 109 -37q44 -38 44 -100q0 -66 -47 -104q-43 -37 -106 -37q-60 0 -106 37t-46 104q0 63 43 100t109 37zM584 1638q65 0 108 -37t43 -100q0 -69 -45 -104q-43 -37 -106 -37t-107 37q-45 37 -45 104q0 63 43 100t109 37z" />
    <glyph glyph-name="eth" unicode="&#xf0;" horiz-adv-x="1462" 
d="M375 1366l182 94l-158 201h369l49 -68l209 109l68 -107l-201 -102l256 -340q104 -138 163 -273q58 -132 58 -296q0 -135 -52 -245q-54 -114 -140 -193q-88 -81 -204 -126t-243 -45q-128 0 -245 47t-203 126q-89 81 -140 193q-51 111 -51 243q0 121 43 231t120 196
q75 84 182 136q105 51 233 51q54 0 104 -8l-137 170l-195 -100zM731 256q77 0 140 27q65 28 108 72q45 47 69 108q23 59 23 131q0 70 -24 130q-23 56 -69 106q-42 45 -108 73q-63 27 -139 27q-77 0 -140 -27q-64 -27 -108 -73q-45 -47 -69 -106q-25 -62 -25 -130
q0 -67 25 -131q24 -61 69 -108q43 -44 108 -72q63 -27 140 -27z" />
    <glyph glyph-name="ntilde" unicode="&#xf1;" horiz-adv-x="1359" 
d="M166 1135q26 5 77 13t62 10q65 11 140 19q70 8 130 12q68 5 109 5q115 0 208 -20q96 -21 169 -74q72 -54 114 -146t42 -233v-721h-287v639q0 157 -66 216q-65 58 -192 58q-48 0 -103 -6q-61 -7 -116 -16v-891h-287v1135zM819 1536q51 0 74 29q22 28 33 82h139
q-10 -133 -74 -200t-155 -67q-52 0 -92 18q-43 19 -74 38q-14 9 -68 38q-31 17 -70 17q-50 0 -71 -29q-20 -27 -31 -82h-141q11 124 73 195q63 72 158 72q50 0 91 -18q43 -19 74 -38q8 -5 66 -38q30 -17 68 -17z" />
    <glyph glyph-name="ograve" unicode="&#xf2;" horiz-adv-x="1384" 
d="M692 -25q-129 0 -247 48q-111 45 -197 128q-84 81 -132 192t-48 241q0 128 48 239q48 112 132 194q86 85 197 130q115 47 247 47t247 -47q112 -46 198 -130q84 -82 132 -194q48 -111 48 -239q0 -130 -48 -241t-132 -192q-85 -82 -198 -128q-118 -48 -247 -48zM692 256
q74 0 135 26q60 26 102 69q40 42 64 105q23 61 23 128t-23 128q-23 62 -64 104q-43 44 -102 71q-58 26 -135 26t-135 -26q-57 -26 -101 -71q-43 -44 -65 -104q-22 -59 -22 -128t22 -128q23 -62 65 -105q43 -44 101 -69q61 -26 135 -26zM319 1661h287l240 -287h-234z" />
    <glyph glyph-name="oacute" unicode="&#xf3;" horiz-adv-x="1384" 
d="M692 -25q-129 0 -247 48q-111 45 -197 128q-84 81 -132 192t-48 241q0 128 48 239q48 112 132 194q86 85 197 130q115 47 247 47t247 -47q112 -46 198 -130q84 -82 132 -194q48 -111 48 -239q0 -130 -48 -241t-132 -192q-85 -82 -198 -128q-118 -48 -247 -48zM692 256
q74 0 135 26q60 26 102 69q40 42 64 105q23 61 23 128t-23 128q-23 62 -64 104q-43 44 -102 71q-58 26 -135 26t-135 -26q-57 -26 -101 -71q-43 -44 -65 -104q-22 -59 -22 -128t22 -128q23 -62 65 -105q43 -44 101 -69q61 -26 135 -26zM823 1374h-233l241 287h285z" />
    <glyph glyph-name="ocircumflex" unicode="&#xf4;" horiz-adv-x="1384" 
d="M692 -25q-129 0 -247 48q-111 45 -197 128q-84 81 -132 192t-48 241q0 128 48 239q48 112 132 194q86 85 197 130q115 47 247 47t247 -47q112 -46 198 -130q84 -82 132 -194q48 -111 48 -239q0 -130 -48 -241t-132 -192q-85 -82 -198 -128q-118 -48 -247 -48zM692 256
q74 0 135 26q60 26 102 69q40 42 64 105q23 61 23 128t-23 128q-23 62 -64 104q-43 44 -102 71q-58 26 -135 26t-135 -26q-57 -26 -101 -71q-43 -44 -65 -104q-22 -59 -22 -128t22 -128q23 -62 65 -105q43 -44 101 -69q61 -26 135 -26zM1120 1374h-239l-181 172l-186 -172
h-240l277 287h297z" />
    <glyph glyph-name="otilde" unicode="&#xf5;" horiz-adv-x="1384" 
d="M692 -25q-129 0 -247 48q-111 45 -197 128q-84 81 -132 192t-48 241q0 128 48 239q48 112 132 194q86 85 197 130q115 47 247 47t247 -47q112 -46 198 -130q84 -82 132 -194q48 -111 48 -239q0 -130 -48 -241t-132 -192q-85 -82 -198 -128q-118 -48 -247 -48zM692 256
q74 0 135 26q60 26 102 69q40 42 64 105q23 61 23 128t-23 128q-23 62 -64 104q-43 44 -102 71q-58 26 -135 26t-135 -26q-57 -26 -101 -71q-43 -44 -65 -104q-22 -59 -22 -128t22 -128q23 -62 65 -105q43 -44 101 -69q61 -26 135 -26zM834 1536q50 0 73 29q22 28 33 82h139
q-11 -135 -73 -200q-64 -67 -156 -67q-50 0 -91 18q-47 21 -75 38q-14 9 -68 38q-31 17 -69 17q-51 0 -72 -29q-20 -27 -31 -82h-141q10 122 74 195q63 72 158 72q51 0 91 -18q39 -17 73 -38q8 -5 66 -38q30 -17 69 -17z" />
    <glyph glyph-name="odieresis" unicode="&#xf6;" horiz-adv-x="1384" 
d="M692 -25q-129 0 -247 48q-111 45 -197 128q-84 81 -132 192t-48 241q0 128 48 239q48 112 132 194q86 85 197 130q115 47 247 47t247 -47q112 -46 198 -130q84 -82 132 -194q48 -111 48 -239q0 -130 -48 -241t-132 -192q-85 -82 -198 -128q-118 -48 -247 -48zM692 256
q74 0 135 26q60 26 102 69q40 42 64 105q23 61 23 128t-23 128q-23 62 -64 104q-43 44 -102 71q-58 26 -135 26t-135 -26q-57 -26 -101 -71q-43 -44 -65 -104q-22 -59 -22 -128t22 -128q23 -62 65 -105q43 -44 101 -69q61 -26 135 -26zM416 1638q66 0 109 -37
q44 -38 44 -100q0 -66 -47 -104q-43 -37 -106 -37q-60 0 -106 37t-46 104q0 63 43 100t109 37zM967 1638q65 0 108 -37t43 -100q0 -69 -45 -104q-43 -37 -106 -37t-107 37q-45 37 -45 104q0 63 43 100t109 37z" />
    <glyph glyph-name="divide" unicode="&#xf7;" horiz-adv-x="1247" 
d="M94 717h1059v-266h-1059v266zM618 -92q-36 0 -68 11q-34 12 -61 33q-26 20 -42 52q-15 30 -15 68q0 39 15 69q17 33 42 53q27 21 61 33q37 13 68 13q34 0 71 -13q35 -12 60 -33q23 -19 42 -53q16 -29 16 -69q0 -39 -16 -68q-18 -32 -42 -52q-25 -21 -60 -33
q-32 -11 -71 -11zM618 913q-34 0 -68 12q-36 12 -61 32t-42 53q-15 30 -15 67t15 69t42 53q30 23 61 34q35 12 68 12q36 0 71 -12q32 -11 60 -34q25 -21 42 -53q16 -31 16 -69t-16 -67q-19 -34 -42 -53t-60 -32q-34 -12 -71 -12z" />
    <glyph glyph-name="oslash" unicode="&#xf8;" horiz-adv-x="1384" 
d="M231 166q-76 77 -120 187q-43 107 -43 231q0 128 48 239q48 112 132 194q86 85 197 130q115 47 247 47q97 0 186 -26q86 -25 160 -72l152 174l129 -113l-152 -174q72 -80 111 -181q39 -102 39 -218q0 -130 -48 -241t-132 -192q-85 -82 -198 -128q-118 -48 -247 -48
q-88 0 -173 22q-77 20 -152 62l-150 -172l-129 113zM369 584q0 -116 55 -195l424 488q-29 14 -72 26q-37 10 -84 10q-77 0 -135 -26q-57 -26 -101 -71q-43 -44 -65 -104q-22 -59 -22 -128zM692 256q74 0 135 26q60 26 102 69q40 42 64 105q23 61 23 128q0 97 -43 174
l-414 -477q59 -25 133 -25z" />
    <glyph glyph-name="ugrave" unicode="&#xf9;" horiz-adv-x="1314" 
d="M862 1153h287v-1094q-47 -16 -119 -35q-55 -15 -116 -27q-55 -11 -121 -16q-84 -6 -138 -6q-111 0 -205 24q-97 25 -166 79q-71 56 -111 145t-40 226v704h287v-623q0 -157 53 -216q52 -58 174 -58q47 0 99 6q50 6 116 23v868zM317 1661h287l240 -287h-234z" />
    <glyph glyph-name="uacute" unicode="&#xfa;" horiz-adv-x="1314" 
d="M862 1153h287v-1094q-47 -16 -119 -35q-55 -15 -116 -27q-55 -11 -121 -16q-84 -6 -138 -6q-111 0 -205 24q-97 25 -166 79q-71 56 -111 145t-40 226v704h287v-623q0 -157 53 -216q52 -58 174 -58q47 0 99 6q50 6 116 23v868zM717 1374h-234l242 287h285z" />
    <glyph glyph-name="ucircumflex" unicode="&#xfb;" horiz-adv-x="1314" 
d="M862 1153h287v-1094q-47 -16 -119 -35q-55 -15 -116 -27q-55 -11 -121 -16q-84 -6 -138 -6q-111 0 -205 24q-97 25 -166 79q-71 56 -111 145t-40 226v704h287v-623q0 -157 53 -216q52 -58 174 -58q47 0 99 6q50 6 116 23v868zM1071 1374h-240l-180 172l-186 -172h-240
l277 287h297z" />
    <glyph glyph-name="udieresis" unicode="&#xfc;" horiz-adv-x="1314" 
d="M862 1153h287v-1094q-47 -16 -119 -35q-55 -15 -116 -27q-55 -11 -121 -16q-84 -6 -138 -6q-111 0 -205 24q-97 25 -166 79q-71 56 -111 145t-40 226v704h287v-623q0 -157 53 -216q52 -58 174 -58q47 0 99 6q50 6 116 23v868zM365 1638q66 0 109 -37q44 -38 44 -100
q0 -66 -47 -104q-43 -37 -106 -37q-60 0 -106 37t-46 104q0 63 43 100t109 37zM915 1638q66 0 109 -37t43 -100q0 -69 -45 -104q-43 -37 -107 -37q-62 0 -106 37q-45 37 -45 104q0 63 43 100t108 37z" />
    <glyph glyph-name="yacute" unicode="&#xfd;" horiz-adv-x="1316" 
d="M158 -111q46 -19 95 -33q70 -20 107 -28q56 -12 108 -18q61 -7 95 -7q65 0 121 12q59 13 95 34q41 24 63 60q22 35 22 87v24q-117 -24 -229 -24q-116 0 -203 20q-93 21 -159 74q-64 51 -103 146q-37 90 -37 233v686h289v-604q0 -81 13 -132q13 -52 41 -84q27 -31 71 -45
q45 -14 102 -14q39 0 100 7q52 6 115 24v848h287v-1067q0 -153 -30 -258q-30 -104 -99 -169q-69 -64 -184 -93q-116 -29 -287 -29q-39 0 -78 4q-42 4 -88 12q-55 9 -88 16q-49 10 -78 19zM692 1374h-233l241 287h285z" />
    <glyph glyph-name="thorn" unicode="&#xfe;" horiz-adv-x="1370" 
d="M453 -451h-287v2112h287v-479l88 8q41 4 88 4q158 0 284 -47q124 -46 212 -128q86 -80 132 -193t46 -240q0 -129 -47 -241t-131 -193q-87 -84 -205 -129q-125 -48 -269 -48q-39 0 -89 3q-44 3 -109 14v-443zM453 279q64 -15 96 -18q48 -5 84 -5q170 0 270 82
q101 83 101 248q0 168 -101 248q-100 79 -270 79q-46 0 -88 -7q-64 -11 -92 -17v-610z" />
    <glyph glyph-name="ydieresis" unicode="&#xff;" horiz-adv-x="1316" 
d="M158 -111q46 -19 95 -33q70 -20 107 -28q56 -12 108 -18q61 -7 95 -7q65 0 121 12q59 13 95 34q41 24 63 60q22 35 22 87v24q-117 -24 -229 -24q-116 0 -203 20q-93 21 -159 74q-64 51 -103 146q-37 90 -37 233v686h289v-604q0 -81 13 -132q13 -52 41 -84q27 -31 71 -45
q45 -14 102 -14q39 0 100 7q52 6 115 24v848h287v-1067q0 -153 -30 -258q-30 -104 -99 -169q-69 -64 -184 -93q-116 -29 -287 -29q-39 0 -78 4q-42 4 -88 12q-55 9 -88 16q-49 10 -78 19zM369 1638q66 0 109 -37q44 -38 44 -100q0 -66 -47 -104q-43 -37 -106 -37
q-60 0 -106 37t-46 104q0 63 43 100t109 37zM920 1638q65 0 108 -37t43 -100q0 -69 -45 -104q-43 -37 -106 -37t-107 37q-45 37 -45 104q0 63 43 100t109 37z" />
    <glyph glyph-name="dotlessi" unicode="&#x131;" horiz-adv-x="616" 
d="M166 0v1153h287v-1153h-287z" />
    <glyph glyph-name="Lslash" unicode="&#x141;" horiz-adv-x="1406" 
d="M-41 754l346 143v764h297v-641l303 127l103 -246l-406 -170v-457h764v-274h-1061v608l-244 -100z" />
    <glyph glyph-name="lslash" unicode="&#x142;" horiz-adv-x="884" 
d="M-41 754l340 155v752h287v-621l229 107l111 -246l-340 -156v-745h-287v612l-229 -104z" />
    <glyph glyph-name="OE" unicode="&#x152;" horiz-adv-x="2676" 
d="M1479 158q-101 -86 -232 -134q-133 -49 -293 -49q-190 0 -348 66q-159 67 -272 181q-115 116 -178 273q-64 158 -64 339q0 177 64 337q63 158 178 273t272 181q160 67 348 67q162 0 293 -48q129 -48 232 -135v152h1061v-275h-766v-395h694v-278h-694v-439h770v-274h-1065
v158zM1505 834q0 130 -42 237q-42 106 -115 182q-74 77 -174 117q-102 41 -220 41q-115 0 -217 -41q-101 -40 -174 -117q-75 -78 -116 -182t-41 -237q0 -134 41 -238t116 -182q73 -76 174 -117q102 -41 217 -41q118 0 220 41q100 41 174 117q73 76 115 182t42 238z" />
    <glyph glyph-name="oe" unicode="&#x153;" horiz-adv-x="2267" 
d="M1673 256q42 0 95 8q44 7 97 22q48 14 85 31t61 41l127 -256q-94 -52 -213 -89q-123 -38 -291 -38q-153 0 -278 58q-121 56 -205 160q-77 -101 -193 -159q-118 -59 -266 -59q-129 0 -247 48q-111 45 -197 128q-84 81 -132 192t-48 241q0 128 48 239q48 112 132 194
q86 85 197 130q115 47 247 47q148 0 264 -58t193 -159q80 103 200 160t265 57q133 0 245 -47t191 -138t123 -223q43 -129 37 -297h-914q29 -119 120 -176q92 -57 226 -57h31zM692 256q74 0 135 26q60 26 102 69q40 42 64 105q23 61 23 128t-23 128q-23 62 -64 104
q-43 44 -102 71q-58 26 -135 26t-135 -26q-57 -26 -101 -71q-43 -44 -65 -104q-22 -59 -22 -128t22 -128q23 -62 65 -105q43 -44 101 -69q61 -26 135 -26zM1610 940q-118 0 -197 -60q-78 -59 -106 -153h602q-23 107 -103 160t-196 53z" />
    <glyph glyph-name="Scaron" unicode="&#x160;" horiz-adv-x="1474" 
d="M209 383q42 -28 100 -52q53 -22 122 -40q65 -17 132 -27q64 -10 133 -10q76 0 141 12t111 39q49 28 75 69q28 44 28 99q0 50 -23 88q-22 37 -63 64q-40 26 -100 45q-78 24 -130 37l-137 34q-228 55 -342 183q-115 129 -115 313q0 101 43 184q44 86 123 145q79 60 191 93
q111 33 245 33q78 0 159 -12q96 -14 157 -31q80 -22 144 -47q70 -28 122 -60l-117 -260q-90 59 -219 94t-248 35q-64 0 -112 -11q-56 -13 -94 -34q-42 -24 -65 -56q-24 -34 -24 -79q0 -81 63 -131t202 -84l139 -35q102 -26 198 -68q93 -41 162 -102q72 -64 111 -145
q41 -85 41 -195q0 -121 -50 -213t-137 -155q-85 -62 -208 -95q-121 -33 -262 -33q-87 0 -174 12q-100 14 -166 30q-87 21 -150 46q-73 29 -123 60zM287 2017h225l195 -174l198 174h228l-291 -286h-269z" />
    <glyph glyph-name="scaron" unicode="&#x161;" horiz-adv-x="1226" 
d="M606 256q92 0 152 20q63 21 63 70q0 46 -40 70q-43 25 -150 47l-92 16q-197 38 -308 123q-110 85 -110 236q0 164 128 260q127 96 353 96q138 0 265 -27q128 -27 225 -80l-105 -266q-34 18 -88 38q-49 18 -102 30q-51 12 -108 18q-54 6 -103 6q-180 0 -180 -75
q0 -40 40 -65q39 -24 150 -46l90 -16q233 -45 337 -136q101 -89 101 -245q0 -78 -32 -141q-33 -64 -99 -112t-165 -75t-230 -27q-55 0 -140 9q-68 7 -139 23q-61 14 -128 37q-57 20 -109 50l108 279q78 -51 189 -84t227 -33zM158 1661h225l195 -174l198 174h228l-291 -287
h-269z" />
    <glyph glyph-name="Ydieresis" unicode="&#x178;" horiz-adv-x="1536" 
d="M1163 1661h342l-587 -1038v-623h-297v623l-590 1038h342l395 -748zM496 2013q65 0 109 -38t44 -99q0 -66 -47 -104q-43 -37 -106 -37q-60 0 -106 37t-46 104q0 62 43 99q44 38 109 38zM1047 2013q64 0 108 -38q43 -37 43 -99q0 -70 -45 -104q-43 -37 -106 -37t-107 37
q-45 38 -45 104q0 62 43 99q44 38 109 38z" />
    <glyph glyph-name="Zcaron" unicode="&#x17d;" horiz-adv-x="1544" 
d="M184 1661h1205v-272l-920 -1115h942v-274h-1298v272l921 1114h-850v275zM371 2017h225l195 -174l198 174h228l-291 -286h-269z" />
    <glyph glyph-name="zcaron" unicode="&#x17e;" horiz-adv-x="1193" 
d="M131 1153h940v-264l-625 -623h646v-266h-1010v266l637 621h-588v266zM186 1661h226l194 -174l199 174h227l-291 -287h-268z" />
    <glyph glyph-name="florin" unicode="&#x192;" horiz-adv-x="1183" 
d="M1001 1032l-20 -147h-221l-96 -596q-22 -130 -53 -248q-30 -116 -90 -199q-59 -83 -159 -133q-98 -49 -253 -49l-115 8l41 258l67 -4q66 0 116 21q52 22 85 80q16 29 27 66q9 31 22 84q10 42 18 86q0 2 11 73l88 553h-123l21 147h127l38 236q15 94 43 171q27 77 77 137
q47 57 120 92q71 34 176 34q49 0 93 -10q47 -10 87 -33l-41 -248q-30 18 -57 26q-28 9 -63 9q-45 0 -73 -26q-27 -26 -45 -63q-17 -36 -25 -80q-2 -14 -6.5 -39t-6.5 -36l-29 -170h219z" />
    <glyph glyph-name="Ohorn" unicode="&#x1a0;" horiz-adv-x="362" 
d="M0 287h403v-287h-403v287z" />
    <glyph glyph-name="Ohorn" unicode="&#x640;" horiz-adv-x="362" 
d="M0 287h403v-287h-403v287z" />
    <glyph glyph-name="circumflex" unicode="&#x2c6;" horiz-adv-x="907" 
d="M877 1374h-240l-180 172l-187 -172h-239l276 287h297z" />
    <glyph glyph-name="caron" unicode="&#x2c7;" horiz-adv-x="907" 
d="M31 1661h225l195 -174l198 174h228l-291 -287h-269z" />
    <glyph glyph-name="breve" unicode="&#x2d8;" horiz-adv-x="770" 
d="M739 1661q-10 -149 -103 -227t-253 -78q-153 0 -248 78q-94 77 -104 227h149q10 -89 69 -124q58 -34 136 -34q77 0 136 34q61 35 71 124h147z" />
    <glyph glyph-name="dotaccent" unicode="&#x2d9;" horiz-adv-x="364" 
d="M182 1638q67 0 110 -37q44 -38 44 -100q0 -66 -47 -104q-43 -37 -107 -37q-59 0 -105 37t-46 104q0 63 43 100t108 37z" />
    <glyph glyph-name="ring" unicode="&#x2da;" horiz-adv-x="495" 
d="M250 1737q88 0 152 -58q63 -57 63 -147q0 -93 -62 -150q-61 -57 -153 -57q-93 0 -156 57t-63 150q0 90 63 147q64 58 156 58zM250 1647q-46 0 -83 -32q-36 -31 -36 -83q0 -54 36 -84q37 -31 83 -31q45 0 81 31q34 30 34 84q0 52 -34 83q-35 32 -81 32z" />
    <glyph glyph-name="ogonek" unicode="&#x2db;" horiz-adv-x="548" 
d="M502 0q-91 -45 -155 -89q-62 -43 -62 -101q0 -46 38 -67q39 -22 95 -22q26 0 53 5q32 6 47 10v-144q-67 -16 -170 -16q-57 0 -114 9q-56 9 -101 33q-46 25 -74 61q-28 37 -28 96q0 37 16 70q15 32 44 64q23 26 64 53q36 24 74 40z" />
    <glyph glyph-name="tilde" unicode="&#x2dc;" horiz-adv-x="837" 
d="M561 1536q51 0 74 29q22 28 33 82h139q-10 -133 -74 -200t-155 -67q-52 0 -92 18q-43 19 -74 38q-14 9 -68 38q-31 17 -70 17q-50 0 -71 -29q-20 -27 -31 -82h-141q11 124 73 195q63 72 158 72q50 0 91 -18q43 -19 74 -38q8 -5 66 -38q30 -17 68 -17z" />
    <glyph glyph-name="hungarumlaut" unicode="&#x2dd;" horiz-adv-x="1056" 
d="M264 1374h-233l241 287h285zM735 1374h-235l239 287h287z" />
    <glyph glyph-name="pi" unicode="&#x3c0;" horiz-adv-x="1667" 
d="M248 0v887h-162v266h1448v-266h-182v-475q0 -53 4 -77q5 -30 18 -43q16 -16 42 -20q24 -4 73 -4h45v-268h-94q-115 0 -184 13q-72 13 -114 48q-42 34 -60 97q-17 58 -17 157v572h-530v-887h-287z" />
    <glyph glyph-name="uni060C" unicode="&#x60c;" horiz-adv-x="804" 
d="M508 -74h-303l266 621h231z" />
    <glyph glyph-name="uni0615" unicode="&#x615;" 
d="M-55 301h104q106 0 168 -55q64 -56 64 -166v-80h-560v113h103v303h121v-115zM-55 209v-96h192q0 37 -22 66q-23 30 -64 30h-106z" />
    <glyph glyph-name="uni061B" unicode="&#x61b;" horiz-adv-x="854" 
d="M393 -23q-35 0 -70 12q-39 13 -60 31q-24 20 -42 52q-16 29 -16 67q0 41 16 70q18 32 42 52q28 23 60 34q34 12 70 12q37 0 71 -12q31 -11 59 -34q24 -20 42 -52q17 -31 17 -70q0 -36 -17 -67q-18 -32 -42 -52q-22 -18 -59 -31q-34 -12 -71 -12zM557 721h-303l266 620
h232z" />
    <glyph glyph-name="uni061F" unicode="&#x61f;" horiz-adv-x="1169" 
d="M743 -25q-34 0 -71 13q-33 12 -62 34q-26 20 -43 53q-16 31 -16 70q0 40 16 71q17 32 43 54q28 23 62 35t71 12t72 -12q36 -13 63 -35q28 -23 44 -54t16 -71q0 -39 -16 -70q-17 -32 -44 -53q-28 -22 -63 -34q-37 -13 -72 -13zM758 1339q-60 0 -114 -17q-58 -18 -100 -50
q-46 -35 -72 -81q-28 -50 -28 -108q0 -75 34 -125q34 -51 91 -82q60 -33 132 -46t159 -13h25v-403h-287v186q-93 21 -175 63q-83 42 -144 105q-62 63 -99 148q-37 84 -37 194q0 116 45 211q46 96 124 161q80 66 187 102q108 36 230 36q124 0 207 -19t156 -49l36 -297
q-83 36 -180 61q-91 23 -190 23z" />
    <glyph glyph-name="uni0647" unicode="&#x647;" horiz-adv-x="1742" 
d="M174 287h234q-10 47 -13 68q-6 41 -6 79q0 229 113 351t311 122q93 0 171 -34q80 -35 136 -95q58 -63 89 -148q32 -88 32 -194q0 -35 -5 -80q-4 -35 -11 -69h186q7 53 12 102q4 44 4 92q0 124 -25 217q-26 96 -81 181q-69 104 -183 157q-117 54 -288 54q-131 0 -241 -43
q-106 -42 -193 -89l-97 261q140 69 295 114q156 45 310 45q112 0 206 -24q95 -24 172 -68q81 -46 137 -102q63 -63 107 -127q86 -126 127 -282q41 -158 41 -343q0 -55 -7 -108q-10 -79 -17 -115q-11 -61 -24 -112q-14 -57 -28 -97h-1464v287zM645 440q0 -40 5 -85
q4 -37 9 -68h312q5 31 9 68q5 45 5 85q0 98 -45 155q-44 56 -127 56q-87 0 -127 -56q-41 -58 -41 -155z" />
    <glyph glyph-name="uni064B" unicode="&#x64b;" 
d="M-227 96l458 66v-96l-458 -66v96zM-229 264l458 66v-97l-458 -65v96z" />
    <glyph glyph-name="uni064C" unicode="&#x64c;" 
d="M-276 217l96 39l51 -143l96 14q-12 30 -12 63q0 69 40 122q41 55 130 55q67 0 109 -46q42 -47 42 -120q0 -18 -2 -58q-1 -23 -10 -71l-457 -72zM45 197q0 -30 8 -56l123 21q2 10 2 33q0 30 -16 50q-16 21 -51 21q-27 0 -46 -18q-20 -18 -20 -51z" />
    <glyph glyph-name="uni064D" unicode="&#x64d;" 
d="M-227 -233l458 65v-96l-458 -66v97zM-229 -66l458 66v-96l-458 -66v96z" />
    <glyph glyph-name="uni064E" unicode="&#x64e;" 
d="M-229 102l458 66v-102l-458 -66v102z" />
    <glyph glyph-name="uni064F" unicode="&#x64f;" 
d="M-236 100l162 27q-12 30 -12 63q0 68 39 122q40 55 129 55q70 0 112 -46q42 -47 42 -120q0 -8 -0.5 -17.5t-1.5 -21.5t-1 -19q-1 -23 -10 -71l-448 -68zM2 197q0 -32 8 -56l123 21q4 15 4 33q0 30 -16 50q-17 21 -51 21q-28 0 -48 -18t-20 -51z" />
    <glyph glyph-name="uni0650" unicode="&#x650;" 
d="M-229 -66l458 66v-102l-458 -66v102z" />
    <glyph glyph-name="uni0651" unicode="&#x651;" 
d="M-106 0q-52 0 -93 30q-40 30 -55 101l-22 115l100 20l20 -110q7 -32 24 -46q15 -12 34 -12q28 0 45 22q16 20 16 62q0 24 -4 48q-9 54 -10 59l102 14l21 -110q11 -52 55 -52q57 0 57 60q0 26 -6 61q-6 37 -22 74l102 22q5 -28 12 -59l9 -47q4 -21 4 -41q0 -82 -43 -124
t-121 -42q-28 0 -52 15q-23 14 -36 34q-16 -37 -50 -65q-35 -29 -87 -29z" />
    <glyph glyph-name="uni0652" unicode="&#x652;" 
d="M-8 0q-77 0 -120 43q-44 44 -44 139q0 88 49 137q50 50 127 50q79 0 124 -51q44 -50 44 -136t-51 -134t-129 -48zM-2 96q27 0 52 17q24 17 24 67q0 48 -23 69q-22 21 -53 21q-23 0 -47 -18q-25 -19 -25 -68q0 -54 22 -71t50 -17z" />
    <glyph glyph-name="uni0653" unicode="&#x653;" horiz-adv-x="686" 
d="M63 1618h560v-133h-560v133z" />
    <glyph glyph-name="uni0654" unicode="&#x654;" horiz-adv-x="686" 
d="M135 1579q0 140 69 197t189 57h103v-92h-86q-62 0 -86 -27q-25 -28 -25 -76h262v-153h-426v94z" />
    <glyph glyph-name="uni0655" unicode="&#x655;" horiz-adv-x="686" 
d="M393 -424q-120 0 -189 57t-69 197v94h426v-153h-262q0 -48 25 -76q24 -27 86 -27h86v-92h-103z" />
    <glyph glyph-name="uni0656" unicode="&#x656;" 
d="M-57 0h114v-381l-114 -16v397z" />
    <glyph glyph-name="uni0658" unicode="&#x658;" 
d="M14 0q-149 0 -205 59q-57 60 -57 195v166h123v-162q0 -69 34 -102q35 -33 107 -33h109v297h123v-420h-234zM-47 623h115l-21 -353l-74 -10z" />
    <glyph glyph-name="uni0660" unicode="&#x660;" horiz-adv-x="1011" 
d="M506 885l231 -232l-231 -231l-232 231z" />
    <glyph glyph-name="uni0661" unicode="&#x661;" horiz-adv-x="899" 
d="M305 0v1380h287v-1380h-287z" />
    <glyph glyph-name="uni0662" unicode="&#x662;" horiz-adv-x="1462" 
d="M281 0v1380h286v-567q46 -17 96 -26q53 -9 99 -9q123 0 177 63t54 185v354h287v-401q0 -487 -487 -487q-54 0 -114 10q-68 11 -112 26v-528h-286z" />
    <glyph glyph-name="uni0663" unicode="&#x663;" horiz-adv-x="1660" 
d="M305 0v1380h287v-589q42 -13 76 -13q41 0 67 10q27 11 42 34q16 26 22 64q6 40 6 99v395h246v-405q0 -35 -2 -85q-1 -28 -7 -73q42 -8 82 -8q56 0 83 43q28 45 28 158v370h287v-440q0 -213 -105 -315q-106 -103 -291 -103q-39 0 -96 13q-59 13 -100 32q-51 -42 -119 -59
q-64 -16 -115 -16q-53 0 -104 12v-504h-287z" />
    <glyph glyph-name="uni0664" unicode="&#x664;" horiz-adv-x="1386" 
d="M723 0q-220 0 -350 86q-129 86 -129 268q0 93 40 167q40 75 107 134q-40 72 -66 158q-24 80 -24 170q0 97 32 181q32 85 94 145q63 62 154 96q93 35 210 35q110 0 214 -30q97 -28 207 -69l-92 -254l-92 31q-36 14 -71 22q-31 7 -68 10q-35 3 -78 3q-45 0 -85 -12
q-39 -12 -71 -37q-31 -25 -49 -61t-18 -80q0 -52 8 -95q7 -36 27 -82q87 31 159 50l240 57l49 -242l-323 -78q-97 -24 -153 -59q-60 -37 -60 -104q0 -42 25 -66q27 -25 65 -37q37 -11 81 -16q37 -4 76 -4h422v-287h-481z" />
    <glyph glyph-name="uni0665" unicode="&#x665;" horiz-adv-x="1447" 
d="M713 -20q-118 0 -212 29q-97 30 -168 93q-71 64 -110 162q-39 99 -39 236q0 183 44 348q43 162 118 289q74 125 171 197q99 73 206 73q95 0 192 -65q99 -66 175 -182t125 -286q49 -171 49 -374q0 -145 -41 -245q-40 -98 -114 -161q-71 -61 -174 -88q-98 -26 -222 -26z
M717 266q133 0 197 67q63 66 63 220q0 107 -18 209q-19 107 -50 182q-33 80 -81 128t-111 48q-58 0 -103 -48q-44 -47 -76 -128t-50 -182q-17 -96 -17 -209q0 -155 59 -220q61 -67 187 -67z" />
    <glyph glyph-name="uni0666" unicode="&#x666;" horiz-adv-x="1302" 
d="M735 0v1094h-577v286h864v-1380h-287z" />
    <glyph glyph-name="uni0667" unicode="&#x667;" horiz-adv-x="1540" 
d="M549 0l-416 1380h301l326 -1091h8l340 1091h301l-434 -1380h-426z" />
    <glyph glyph-name="uni0668" unicode="&#x668;" horiz-adv-x="1540" 
d="M975 1380l434 -1380h-301l-340 1092h-8l-326 -1092h-301l416 1380h426z" />
    <glyph glyph-name="uni0669" unicode="&#x669;" horiz-adv-x="1492" 
d="M926 0v354q-21 -3 -70 -7q-34 -3 -63 -3q-127 0 -237 30q-111 30 -189 91q-79 61 -126 157q-46 93 -46 228q0 137 51 236q51 98 143 165q92 66 220 98q125 31 282 31h321v-1380h-286zM774 631q78 0 152 6v457h-109q-157 0 -247 -58q-89 -57 -89 -186q0 -120 81 -169
q82 -50 212 -50z" />
    <glyph glyph-name="uni066A" unicode="&#x66a;" horiz-adv-x="1335" 
d="M909 1812h273l-750 -2068h-278zM983 121q-39 0 -71 11q-35 12 -59 32q-25 21 -42 51q-16 29 -16 68q0 40 16 69q18 32 42 52q28 23 59 34q37 13 71 13t71 -13q31 -11 59 -34q24 -20 42 -52q16 -29 16 -69q0 -39 -16 -68q-17 -30 -42 -51q-24 -20 -59 -32q-32 -11 -71 -11
zM379 1157q-39 0 -71 11q-35 12 -59 32q-25 21 -42 51q-17 31 -17 68q0 39 17 70q18 32 42 52q28 23 59 34q35 12 71 12q37 0 71 -12q31 -11 59 -34q24 -20 42 -52q16 -29 16 -70q0 -39 -16 -68q-17 -30 -42 -51q-24 -20 -59 -32q-32 -11 -71 -11z" />
    <glyph glyph-name="uni066B" unicode="&#x66b;" horiz-adv-x="804" 
d="M508 -74h-303l266 621h231z" />
    <glyph glyph-name="uni066C" unicode="&#x66c;" horiz-adv-x="804" 
d="M508 930h-303l266 620h231z" />
    <glyph glyph-name="uni066D" unicode="&#x66d;" horiz-adv-x="1198" 
d="M825 565l109 -393l-340 225l-340 -225l108 393l-319 254l408 19l143 383l141 -383l410 -19z" />
    <glyph glyph-name="uni066E" unicode="&#x66e;" horiz-adv-x="1767" 
d="M762 0q-92 0 -167 9t-138 30q-66 22 -116 52q-51 31 -99 77q-78 73 -107 185q-31 118 -31 239v387h287v-352q0 -91 20 -157q19 -64 66 -105q53 -45 133 -62q77 -16 172 -16h574v866h286v-1153h-880z" />
    <glyph glyph-name="uni066F" unicode="&#x66f;" horiz-adv-x="1792" 
d="M764 -451q-84 0 -167 10q-80 10 -138 29q-62 21 -116 53t-99 76q-77 73 -107 186q-31 118 -31 238v449h287v-414q0 -91 20 -157q19 -65 66 -105q51 -44 133 -61t172 -17h596v164h-37q-147 0 -275 33q-129 33 -223 102q-96 70 -150 179q-54 110 -54 264q0 136 52 241
q52 106 146 180q93 73 222 114q127 40 282 40h324v-1604h-903zM928 578q0 -73 25 -126q26 -54 71 -92q44 -37 105 -55q60 -18 131 -18h120v579h-120q-67 0 -124 -20q-60 -21 -107 -59q-46 -37 -74 -91q-27 -53 -27 -118z" />
    <glyph glyph-name="uni0670" unicode="&#x670;" 
d="M-57 397h114v-381l-114 -16v397z" />
    <glyph glyph-name="uni06A1" unicode="&#x6a1;" horiz-adv-x="2320" 
d="M838 0q-92 0 -167 9q-77 9 -139 30q-64 21 -115 52q-54 32 -100 77q-76 72 -106 185q-31 118 -31 239v387h287v-352q0 -94 19 -157t67 -105q53 -45 133 -62q77 -16 172 -16h334q-46 61 -72 131q-26 69 -26 160q0 133 50 241q49 105 140 181q90 75 217 114q128 39 281 39
h338v-1153h-1282zM1380 578q0 -94 42 -168t114 -123h297v579h-121q-62 0 -122 -18t-106 -55t-75 -92t-29 -123z" />
    <glyph glyph-name="uni06C2" unicode="&#x6c2;" horiz-adv-x="1171" 
d="M813 0q-153 0 -282 35t-221 106q-91 71 -145 181q-52 107 -52 253q0 125 47 231q47 105 137 182q92 78 220 121q132 44 296 44h41v102h287v-1255h-328zM854 287v579h-111q-65 0 -125 -19q-62 -20 -110 -56t-79 -92q-30 -54 -30 -124t28 -124t74 -91t105 -55
q60 -18 123 -18h125zM696 1470q0 140 69 197t189 57h123v-92h-106q-63 0 -86 -26q-25 -28 -25 -76v-55h283v-154h-447v149z" />
    <glyph glyph-name="uni06C3" unicode="&#x6c3;" horiz-adv-x="1171" 
d="M813 0q-153 0 -282 35t-221 106q-91 71 -145 181q-52 107 -52 253q0 125 47 231q47 105 137 182q92 78 220 121q132 44 296 44h41v102h287v-1255h-328zM854 287v579h-111q-65 0 -125 -19q-62 -20 -110 -56t-79 -92q-30 -54 -30 -124t28 -124t74 -91t105 -55
q60 -18 123 -18h125zM973 1407q-66 0 -113 38t-47 109q0 66 46 106t114 40q70 0 114 -40q46 -41 46 -106q0 -70 -48 -109q-47 -38 -112 -38zM528 1407q-65 0 -112 38t-47 109q0 66 46 106t113 40q68 0 114 -40t46 -106q0 -71 -47 -109t-113 -38z" />
    <glyph glyph-name="uni06D5" unicode="&#x6d5;" horiz-adv-x="1171" 
d="M813 0q-153 0 -282 35t-221 106q-91 71 -145 181q-52 107 -52 253q0 125 47 231q47 105 137 182q92 78 220 121q132 44 296 44h41v102h287v-1255h-328zM854 287v579h-111q-65 0 -125 -19q-62 -20 -110 -56t-79 -92q-30 -54 -30 -124t28 -124t74 -91t105 -55
q60 -18 123 -18h125z" />
    <glyph glyph-name="uni06F0" unicode="&#x6f0;" horiz-adv-x="958" 
d="M481 885l232 -232l-232 -231l-231 231z" />
    <glyph glyph-name="uni06F1" unicode="&#x6f1;" horiz-adv-x="829" 
d="M272 0v1380h287v-1380h-287z" />
    <glyph glyph-name="uni06F2" unicode="&#x6f2;" horiz-adv-x="1280" 
d="M248 0v1380h287v-567q47 -18 95 -26q52 -9 99 -9q123 0 177 63q55 64 55 185v354h286v-401q0 -487 -487 -487q-54 0 -114 10q-66 11 -111 26v-528h-287z" />
    <glyph glyph-name="uni06F3" unicode="&#x6f3;" horiz-adv-x="1464" 
d="M305 0v1380h287v-589q42 -13 76 -13q41 0 67 10q27 11 42 34q16 26 22 64q6 40 6 99v395h246v-405q0 -35 -2 -85q-1 -28 -7 -73q42 -8 82 -8q56 0 83 43q28 45 28 158v370h287v-440q0 -213 -105 -315q-106 -103 -291 -103q-39 0 -96 13q-59 13 -100 32q-51 -42 -119 -59
q-64 -16 -115 -16q-53 0 -104 12v-504h-287z" />
    <glyph glyph-name="uni06F4" unicode="&#x6f4;" horiz-adv-x="1648" 
d="M281 0v1380h286v-540q34 -10 92 -21q57 -11 129 -18q-22 60 -38 131q-15 66 -15 119q0 77 25 150q24 71 71 124q48 55 119 84q74 31 168 31q33 0 63 -3q25 -3 59 -11q44 -11 64 -18q36 -13 74 -28l-75 -221q-46 19 -80 28q-28 7 -74 7q-30 0 -60 -12q-29 -12 -54 -35
q-22 -21 -38 -57q-14 -32 -14 -78q0 -59 11 -107q13 -58 38 -106q111 11 185 37q77 27 149 61l100 -262q-135 -56 -276 -93q-129 -34 -273 -34q-33 0 -76 3q-46 3 -91 9q-37 5 -95 16t-88 19v-555h-286z" />
    <glyph glyph-name="uni06F5" unicode="&#x6f5;" horiz-adv-x="1372" 
d="M516 -20q-72 0 -134 31t-108 92q-44 59 -70 149t-26 201q0 216 95 403q93 184 264 356q-45 36 -101 76l-71 49l170 232q149 -97 286 -214q133 -113 234 -241q107 -135 171 -306q64 -170 64 -351q0 -118 -26 -203q-27 -90 -73 -150q-47 -62 -109 -93t-134 -31
q-78 0 -129 30t-86 103q-40 -71 -89 -102t-128 -31zM754 1028q-125 -108 -206 -238q-83 -133 -83 -298q0 -101 21 -164q21 -64 85 -64q33 0 54 15q19 14 31 37q12 24 15 55q3 30 3 61h121q0 -31 3 -61q3 -33 13 -54q9 -20 30 -36q19 -15 52 -15q65 0 88 57q23 58 23 160
q0 149 -60 273q-61 127 -160 239z" />
    <glyph glyph-name="uni06F6" unicode="&#x6f6;" horiz-adv-x="1388" 
d="M250 0v272q0 120 43 202t121 142q-53 91 -83 179t-30 188q0 97 32 181q32 85 94 145q63 62 154 96q93 35 210 35q110 0 214 -30q97 -28 207 -69l-92 -254l-92 33q-44 14 -71 20q-31 7 -68 10q-35 3 -78 3q-45 0 -85 -12q-39 -12 -71 -37q-31 -25 -49 -61t-18 -80
q0 -72 15 -123q14 -49 50 -111l72 19l311 77l60 -280l-273 -66q-56 -14 -111 -36q-52 -21 -91 -54q-40 -34 -62 -78t-22 -104v-207h-287z" />
    <glyph glyph-name="uni06F7" unicode="&#x6f7;" horiz-adv-x="1290" 
d="M426 0l-416 1380h301l326 -1091h8l340 1091h301l-434 -1380h-426z" />
    <glyph glyph-name="uni06F8" unicode="&#x6f8;" horiz-adv-x="1290" 
d="M879 1380l434 -1380h-301l-340 1092h-8l-326 -1092h-301l416 1380h426z" />
    <glyph glyph-name="uni06F9" unicode="&#x6f9;" horiz-adv-x="1296" 
d="M788 0v354q-23 -3 -69 -7q-35 -3 -64 -3q-127 0 -236 30q-112 31 -190 91q-79 61 -126 157q-46 93 -46 228t52 236q51 98 143 165q92 66 220 98q125 31 282 31h321v-1380h-287zM637 631q77 0 151 6v457h-108q-157 0 -247 -58q-89 -57 -89 -186q0 -120 81 -169
q82 -50 212 -50z" />
    <glyph glyph-name="endash" unicode="&#x2013;" horiz-adv-x="1212" 
d="M94 717h1024v-266h-1024v266z" />
    <glyph glyph-name="emdash" unicode="&#x2014;" horiz-adv-x="1703" 
d="M94 717h1516v-266h-1516v266z" />
    <glyph glyph-name="quoteleft" unicode="&#x2018;" horiz-adv-x="616" 
d="M348 1040h-303l268 621h230z" />
    <glyph glyph-name="quoteright" unicode="&#x2019;" horiz-adv-x="616" 
d="M240 1661h303l-269 -621h-229z" />
    <glyph glyph-name="quotesinglbase" unicode="&#x201a;" horiz-adv-x="616" 
d="M229 281h303l-266 -621h-231z" />
    <glyph glyph-name="quotedblleft" unicode="&#x201c;" horiz-adv-x="1112" 
d="M844 1040h-305l268 621h231zM348 1040h-303l268 621h230z" />
    <glyph glyph-name="quotedblright" unicode="&#x201d;" horiz-adv-x="1112" 
d="M240 1661h303l-269 -621h-229zM733 1661h305l-268 -621h-231z" />
    <glyph glyph-name="quotedblbase" unicode="&#x201e;" horiz-adv-x="1122" 
d="M229 281h303l-266 -621h-231zM733 281h305l-268 -621h-231z" />
    <glyph glyph-name="dagger" unicode="&#x2020;" horiz-adv-x="1359" 
d="M537 950h-453v267h453v444h286v-444h453v-267h-453v-950h-286v950z" />
    <glyph glyph-name="daggerdbl" unicode="&#x2021;" horiz-adv-x="1437" 
d="M575 1020h-452v268h452v373h287v-373h453v-268h-453v-367h453v-268h-453v-385h-287v385h-452v268h452v367z" />
    <glyph glyph-name="bullet" unicode="&#x2022;" horiz-adv-x="886" 
d="M444 387q-81 0 -154 31q-71 30 -122 83q-51 52 -81 122q-30 69 -30 149t30 151t81 123q50 51 122 82q73 31 154 31q80 0 153 -31q71 -30 123 -82t81 -123q28 -69 28 -151q0 -81 -28 -149q-29 -70 -81 -122q-53 -53 -123 -83q-73 -31 -153 -31z" />
    <glyph glyph-name="ellipsis" unicode="&#x2026;" horiz-adv-x="1892" 
d="M295 -23q-37 0 -71 12q-33 11 -59 33q-24 20 -42 52q-17 31 -17 67q0 37 17 69t42 53q28 23 59 34q34 12 71 12t71 -12q31 -11 59 -34q25 -21 42 -53q16 -31 16 -69t-16 -67q-18 -32 -42 -52q-26 -22 -59 -33q-35 -12 -71 -12zM944 -23q-33 0 -68 12q-34 12 -61 33
q-26 20 -42 52q-15 30 -15 67t15 69t42 53q30 23 61 34q35 12 68 12q36 0 71 -12q29 -10 60 -34q26 -20 43 -53q17 -32 17 -69q0 -36 -17 -67q-18 -32 -43 -52q-28 -22 -60 -33q-35 -12 -71 -12zM1595 -23q-34 0 -68 12t-61 33q-26 20 -42 52q-15 30 -15 67t15 69t42 53
q30 23 61 34q34 12 68 12q37 0 71 -12q29 -10 60 -34q26 -20 43 -53q17 -32 17 -69q0 -36 -17 -67q-18 -32 -43 -52q-28 -22 -60 -33q-34 -12 -71 -12z" />
    <glyph glyph-name="perthousand" unicode="&#x2030;" horiz-adv-x="3106" 
d="M494 709q-100 0 -171 34q-72 34 -122 100t-74 154q-25 94 -25 203t25 203q24 90 74 155q49 64 122 99t171 35q97 0 172 -35q72 -34 122 -99t74 -155q25 -94 25 -203t-25 -203q-24 -88 -74 -154q-51 -67 -122 -100q-72 -34 -172 -34zM494 942q71 0 114 59t43 199
q0 141 -43 200q-43 60 -114 60q-72 0 -115 -60q-43 -59 -43 -200q0 -140 43 -199t115 -59zM377 2l1161 1659h293l-1161 -1659h-293zM1710 -27q-98 0 -171 35q-72 34 -122 100t-74 154q-24 90 -24 203t24 203q24 88 74 154t122 100q71 34 171 34t172 -34t123 -100
q50 -66 74 -154q24 -90 24 -203t-24 -203q-24 -88 -74 -154q-51 -66 -123 -100q-75 -35 -172 -35zM1710 207q72 0 115 59t43 199q0 141 -43 200q-43 60 -115 60t-115 -60q-43 -59 -43 -200q0 -140 43 -199t115 -59zM2611 -27q-98 0 -171 35q-72 34 -122 100q-49 64 -73 154
q-25 94 -25 203t25 203q24 90 73 154q50 66 122 100q71 34 171 34t172 -34t123 -100q50 -66 74 -154q24 -90 24 -203t-24 -203q-24 -88 -74 -154q-51 -66 -123 -100q-75 -35 -172 -35zM2611 207q72 0 115 59t43 199q0 141 -43 200q-44 60 -115 60t-114 -60q-43 -59 -43 -200
q0 -140 43 -199t114 -59z" />
    <glyph glyph-name="guilsinglleft" unicode="&#x2039;" horiz-adv-x="727" 
d="M53 590l320 524h301l-309 -522l307 -529h-297z" />
    <glyph glyph-name="guilsinglright" unicode="&#x203a;" horiz-adv-x="727" 
d="M350 63h-295l305 529l-307 522h299l322 -524z" />
    <glyph glyph-name="fraction" unicode="&#x2044;" horiz-adv-x="1331" 
d="M-61 2l1161 1659h293l-1162 -1659h-292z" />
    <glyph glyph-name="Euro" unicode="&#x20ac;" horiz-adv-x="1812" 
d="M391 1186q45 112 119 206q72 91 174 158q100 66 225 102q124 36 273 36q153 0 299 -38q142 -37 250 -104l-113 -260q-89 55 -197 90t-229 35q-143 0 -263 -55q-122 -56 -200 -170h617l-111 -219h-592q-7 -37 -8 -66q-2 -44 -2 -67v-31q0 -7 2 -27h506l-111 -219h-344
q33 -77 86 -135q56 -59 119 -95q71 -40 142 -57q77 -18 159 -18q121 0 229 35t197 90l113 -260q-108 -67 -250 -104q-146 -38 -299 -38q-159 0 -293 42q-132 42 -237 119q-104 77 -176 183q-71 104 -109 238h-365l109 219h221q-2 20 -2 27v31q0 23 2 67q2 33 6 66h-336
l109 219h280z" />
    <glyph glyph-name="trademark" unicode="&#x2122;" horiz-adv-x="2080" 
d="M340 1493h-295v168h770v-168h-295v-752h-180v752zM1296 741l-204 770v-770h-181v920h308l196 -752l195 752h305v-920h-176v770l-205 -770h-238z" />
    <glyph glyph-name="Omega" unicode="&#x2126;" horiz-adv-x="1906" 
d="M952 1692q166 0 313 -46q148 -46 262 -135q115 -89 180 -218q67 -132 67 -298q0 -124 -37 -226q-38 -104 -100 -184q-64 -83 -147 -135q-87 -55 -181 -77v-107h424v-266h-668v561q202 28 313 138q111 109 111 280q0 109 -42 191q-43 84 -116 139t-171 84q-96 28 -208 28
t-208 -28q-98 -29 -170 -84q-70 -54 -115 -139q-43 -82 -43 -191q0 -171 111 -280t313 -138v-561h-668v266h424v107q-94 22 -181 77q-85 53 -148 135q-62 79 -98 184q-36 103 -36 226q0 166 67 298q65 128 179 218q113 89 261 135q147 46 312 46z" />
    <glyph glyph-name="twothirds" unicode="&#x2154;" horiz-adv-x="2105" 
d="M1571 1528l-828 -1591l-141 71l830 1589zM1272 688q12 122 92 194t215 72q129 0 209 -69t80 -191q0 -52 -23 -107q-23 -54 -73 -87q68 -28 99 -96q30 -66 30 -130q0 -65 -26 -122q-26 -56 -70 -94q-43 -37 -105 -58q-59 -20 -133 -20q-71 0 -128 22q-61 24 -103 61
t-70 94q-26 53 -31 115h197q5 -56 41 -95q37 -40 102 -40t100 47t35 101q0 27 -9 54t-28 49q-19 23 -45 34q-26 12 -59 10l-37 -2v129h22q62 0 95 35q32 33 32 94q0 49 -29 82q-30 35 -85 35q-53 0 -80 -37q-28 -38 -29 -80h-186zM881 866v-157h-676l256 297l63 73
q34 39 71 91q30 42 58 96q25 48 25 86q0 64 -33 108q-33 43 -96 43q-32 0 -56 -15t-39 -39q-16 -25 -23 -51q-7 -24 -5 -55h-207q5 70 28 125q25 60 64 100q40 42 101 66q62 25 137 25q66 0 127 -23t103 -62q46 -43 70 -94q25 -53 25 -118q0 -103 -52 -183
q-52 -81 -122 -155l-147 -158h328z" />
    <glyph glyph-name="partialdiff" unicode="&#x2202;" horiz-adv-x="1462" 
d="M731 -25q-128 0 -245 47t-203 126q-89 81 -140 193q-51 111 -51 243q0 121 43 231t120 196q75 84 182 136q105 51 233 51q54 0 104 -8l-375 471h369l381 -508q104 -138 163 -273q58 -132 58 -296q0 -135 -52 -245q-54 -114 -140 -193q-88 -81 -204 -126t-243 -45z
M731 256q77 0 140 27q65 28 108 72q45 47 69 108q23 59 23 131q0 70 -24 130q-23 56 -69 106q-42 45 -108 73q-63 27 -139 27q-77 0 -140 -27q-64 -27 -108 -73q-45 -47 -69 -106q-25 -62 -25 -130q0 -67 25 -131q24 -61 69 -108q43 -44 108 -72q63 -27 140 -27z" />
    <glyph glyph-name="Delta" unicode="&#x2206;" horiz-adv-x="1683" 
d="M842 1698l811 -1700h-1622zM842 1188l-457 -969h918z" />
    <glyph glyph-name="product" unicode="&#x220f;" horiz-adv-x="1626" 
d="M166 -451v2112h1294v-2112h-286v1846h-721v-1846h-287z" />
    <glyph glyph-name="summation" unicode="&#x2211;" horiz-adv-x="1462" 
d="M795 606l-734 789v266h1340v-266h-1000l736 -789l-736 -790h1000v-267h-1340v267z" />
    <glyph glyph-name="minus" unicode="&#x2212;" horiz-adv-x="1247" 
d="M94 717h1059v-266h-1059v266z" />
    <glyph glyph-name="radical" unicode="&#x221a;" horiz-adv-x="1527" 
d="M477 637l314 -772l374 1796h281l-440 -2081h-355l-332 764l-202 -74l-76 205z" />
    <glyph glyph-name="infinity" unicode="&#x221e;" horiz-adv-x="1937" 
d="M1411 1042q103 0 187 -31q86 -32 147 -88q61 -57 96 -135q35 -79 35 -172q0 -96 -33 -175q-32 -77 -93 -135q-59 -56 -145 -88q-87 -32 -188 -32q-140 0 -249 68q-106 66 -197 168q-41 -45 -95 -91q-49 -42 -106 -74q-58 -33 -118 -50q-66 -19 -132 -19q-100 0 -187 32
t-146 88q-61 58 -93 135q-33 79 -33 173q0 95 34 172q35 80 95 135q60 56 148 88q84 31 190 31q141 0 249 -63q106 -62 194 -156q91 100 193 159q104 60 247 60zM526 449q85 0 149 46q66 48 130 123q-58 67 -123 116q-67 50 -150 50q-84 0 -139 -45t-55 -123q0 -68 53 -118
q52 -49 135 -49zM1405 784q-81 0 -148 -50q-61 -46 -120 -116q57 -68 126 -120q65 -49 150 -49q81 0 133 48q53 48 53 119q0 72 -52 120q-53 48 -142 48z" />
    <glyph glyph-name="integral" unicode="&#x222b;" horiz-adv-x="892" 
d="M590 -53q0 -207 -110 -302q-111 -96 -349 -96h-151v267h149q57 0 89 11q34 12 53 34q20 23 26 57q6 35 6 82v1264q0 207 110 302t349 95h151v-266h-149q-54 0 -89 -12t-53 -33q-20 -23 -26 -58t-6 -82v-1263z" />
    <glyph glyph-name="approxequal" unicode="&#x2248;" horiz-adv-x="1318" 
d="M895 852q59 0 93 36q33 35 44 122h195q-11 -183 -84 -282t-215 -99q-72 0 -140 24q-53 19 -131 56q-81 39 -121 55q-58 24 -112 24q-58 0 -92 -34q-36 -36 -43 -123h-195q10 182 84 281q74 100 217 100q74 0 147 -25q65 -22 134 -55l119 -55q58 -25 100 -25zM895 352
q59 0 93 37q33 36 44 123h195q-10 -184 -84 -283q-73 -98 -215 -98q-70 0 -140 25q-61 22 -131 55q-81 39 -121 55q-61 25 -112 25q-58 0 -92 -36q-36 -37 -43 -122h-195q11 181 84 281t217 100q75 0 147 -26q73 -26 134 -54l119 -57q58 -25 100 -25z" />
    <glyph glyph-name="notequal" unicode="&#x2260;" horiz-adv-x="1247" 
d="M94 981h654l155 260h250l-156 -260h156v-266h-313l-156 -260h469v-269h-629l-178 -301h-254l180 301h-178v269h338l156 260h-494v266z" />
    <glyph glyph-name="lessequal" unicode="&#x2264;" horiz-adv-x="1413" 
d="M1303 514v-242l-1192 324v293l1192 319v-239l-897 -228zM111 217h1192v-217h-1192v217z" />
    <glyph glyph-name="greaterequal" unicode="&#x2265;" horiz-adv-x="1413" 
d="M1008 741l-897 228v239l1192 -319v-293l-1192 -324v242zM1303 0h-1192v217h1192v-217z" />
    <glyph glyph-name="lozenge" unicode="&#x25ca;" horiz-adv-x="1302" 
d="M315 772l340 -559l342 559l-342 561zM655 1743l607 -971l-607 -969l-616 969z" />
    <glyph glyph-name="uni25CC" unicode="&#x25cc;" horiz-adv-x="1402" 
d="M637 918q0 27 18 45t47 18q28 0 46 -18t18 -45q0 -30 -18 -48t-46 -18q-29 0 -47 18t-18 48zM424 866q0 27 18 45q19 19 47 19q27 0 46 -19q18 -18 18 -45q0 -29 -18 -47t-46 -18q-29 0 -47 18t-18 47zM856 866q0 27 18 45q19 19 46 19t46 -19q17 -17 17 -45
q0 -30 -17 -47q-18 -18 -46 -18t-46 18t-18 47zM1020 698q0 27 18 45q19 19 45 19t45 -19t19 -45t-19 -45q-18 -18 -45 -18t-45 18t-18 45zM264 698q0 27 18 45q19 19 46 19q26 0 45 -19q18 -18 18 -45t-18 -45t-45 -18q-28 0 -46 18t-18 45zM205 477q0 27 18 45
q19 19 45 19q27 0 46 -19q18 -18 18 -45q0 -28 -18 -46q-17 -17 -46 -17q-28 0 -45 17q-18 18 -18 46zM1071 477q0 26 19 45t45 19t45 -19q18 -18 18 -45q0 -28 -18 -46q-17 -17 -45 -17t-45 17q-19 19 -19 46zM1020 262q0 27 18 45q19 19 45 19t45 -19t19 -45t-19 -45
q-18 -18 -45 -18t-45 18t-18 45zM264 262q0 27 18 45q19 19 46 19q26 0 45 -19q18 -18 18 -45t-18 -45t-45 -18q-28 0 -46 18t-18 45zM424 104q0 28 18 46t47 18q28 0 46 -18t18 -46t-18 -46q-17 -17 -46 -17q-30 0 -47 17q-18 18 -18 46zM856 104q0 28 18 46t46 18t46 -18
q17 -17 17 -46t-17 -46t-46 -17t-46 17q-18 18 -18 46zM637 45q0 28 18 46t47 18q28 0 46 -18t18 -46q0 -27 -18 -45t-46 -18q-29 0 -47 18t-18 45z" />
    <glyph glyph-name="uni274A" unicode="&#x274a;" horiz-adv-x="1126" 
d="M506 1085q-35 -16 -105 -29q-63 -12 -137 -12q-62 0 -135 13q-71 13 -109 28v33q44 22 108 33q61 10 136 10q78 0 138 -14q68 -16 104 -31v-31zM1106 1085q-35 -16 -105 -29q-63 -12 -137 -12q-64 0 -137 13q-69 12 -106 28v33q44 23 106 33q60 10 137 10q78 0 137 -14
q70 -17 105 -31v-31zM580 1044q16 -36 29 -104q12 -63 12 -137q0 -62 -13 -135q-13 -71 -28 -109h-33q-23 43 -33 108q-10 61 -10 136q0 78 14 138q15 66 31 103h31zM580 1645q16 -35 29 -105q12 -63 12 -137q0 -64 -13 -137q-13 -70 -28 -107h-33q-22 43 -33 107
q-10 60 -10 137q0 78 14 137q17 70 31 105h31zM535 1051q-17 -42 -53 -96q-35 -53 -89 -105q-51 -48 -106 -87q-54 -38 -94 -56l-25 24q18 50 53 98q40 54 90 103q50 53 108 88q61 37 93 51zM958 1473q-19 -46 -53 -94q-37 -53 -90 -105q-44 -47 -104 -88q-53 -37 -97 -55
l-22 22q17 48 52 99q37 54 89 106t108 86q59 36 95 51zM614 1073q46 -19 96 -52q53 -35 105 -89q45 -48 87 -107q38 -54 56 -94l-24 -24q-50 18 -98 53q-54 40 -103 90q-56 55 -88 107q-35 58 -51 94zM193 1497q44 -18 93 -53q52 -38 105 -90q45 -42 88 -105q40 -59 56 -96
l-23 -22q-48 17 -99 52q-54 37 -106 89q-54 54 -86 107q-35 57 -51 96z" />
    <glyph glyph-name="apple" unicode="&#xf8ff;" horiz-adv-x="1738" 
d="M471 1700h-82v82h82v-82zM754 1661h225v-1387h-148v-643h68v109h80v-191h-225v809h145v1223h-68v-1128h-77v1208zM604 1665h80v-2116h-369v82h289v2034zM315 131h-110v80h190v-436h66v499h-146v1387h226v-1966h-226v436zM395 1581v-1223h66v1223h-66zM1065 1663h215v-35
h-184v-2079h-31v2114zM1501 -451v750h-147v1364h180v-2114h-33zM1389 1628v-1298h112v1298h-112z" />
    <glyph glyph-name="uniFB01" unicode="&#xfb01;" horiz-adv-x="1658" 
d="M51 1153h217v111q0 207 110 302t349 95h274v-266h-272q-55 0 -89 -12q-35 -12 -53 -33q-20 -23 -26 -58t-6 -82v-57h438v-266h-438v-887h-287v887h-217v266zM1208 1153h287v-1153h-287v1153zM1352 1333q-68 0 -118 39t-50 115q0 67 48 109t120 42t118 -42q48 -43 48 -109
q0 -70 -47 -112t-119 -42z" />
    <glyph glyph-name="uniFB02" unicode="&#xfb02;" horiz-adv-x="1660" 
d="M51 1153h217v111q0 207 110 302t349 95h274v-266h-272q-55 0 -89 -12q-35 -12 -53 -33q-20 -23 -26 -58t-6 -82v-57h438v-266h-438v-887h-287v887h-217v266zM1208 0v1661h287v-1661h-287z" />
    <glyph glyph-name="uniFD3E" unicode="&#xfd3e;" horiz-adv-x="747" 
d="M596 -451q-102 0 -176 16q-70 15 -112 54q-40 38 -59 107q-18 68 -18 170v348q0 54 -6 100q-6 49 -23 81q-18 34 -51 54q-35 22 -90 23v209q56 2 90 22q33 20 51 55q17 32 23 81q6 47 6 102v344q0 103 18 170q18 68 59 106q43 40 112 55t176 15h121v-207h-66
q-46 0 -73 -6q-26 -6 -40 -23t-17 -46q-3 -30 -3 -76v-361q0 -89 -14 -144q-16 -62 -41 -97q-26 -37 -63 -58q-37 -22 -78 -33v-4q37 -10 78 -34q35 -21 63 -59q25 -35 41 -96q14 -55 14 -145v-364q0 -47 3 -77q3 -29 17 -46t40 -23q27 -6 73 -6h66v-207h-121z" />
    <glyph glyph-name="uniFD3F" unicode="&#xfd3f;" horiz-adv-x="747" 
d="M150 -451h-119v207h47q47 0 77 6q29 6 46 23t21 46q5 33 5 77v364q0 86 15 145q16 61 41 96q28 39 62 59q40 23 79 34v4q-43 12 -79 33q-35 20 -62 58q-25 35 -41 97q-15 58 -15 144v361q0 43 -5 76q-4 29 -21 46t-46 23q-30 6 -77 6h-47v207h119q107 0 176 -15
q68 -15 111 -55q42 -39 60 -106q17 -64 17 -170v-344q0 -55 6 -102q6 -44 25 -81q18 -34 52 -55t89 -22v-209q-54 -1 -89 -23q-35 -21 -52 -54q-19 -37 -25 -81q-6 -47 -6 -100v-348q0 -106 -17 -170q-18 -68 -60 -107t-111 -54q-74 -16 -176 -16z" />
    <glyph glyph-name="uni0627.short" horiz-adv-x="706" 
d="M266 1413h287v-1413h-287v1413z" />
    <glyph glyph-name="uni0627.shortfina" horiz-adv-x="774" 
d="M266 1413h287v-1126h262v-287h-549v1413z" />
    <glyph glyph-name="uni066E.initalt" horiz-adv-x="839" 
d="M0 287h428v866h287v-1153h-715v287z" />
    <glyph glyph-name="uni066E.medialt" horiz-adv-x="1050" 
d="M0 287h428v866h287v-866h377v-287h-1092v287z" />
    <glyph glyph-name="uni06C3.fina" horiz-adv-x="1091" 
d="M760 0v868h-129q-56 0 -96 -11q-44 -12 -78 -40q-35 -29 -56 -74q-20 -43 -20 -98v-342h-287v303q0 151 43 256q43 106 135 180q74 59 171 85q103 28 219 28h385v-868h206v-287h-493zM426 1309q-66 0 -113 38t-47 109q0 66 46 106t114 40t114 -40t46 -106q0 -71 -47 -109
t-113 -38zM870 1309q-65 0 -112 38t-47 109q0 66 46 106t113 40q71 0 115 -40q45 -40 45 -106q0 -71 -47 -109t-113 -38z" />
    <glyph glyph-name="uni06BA.init" horiz-adv-x="663" 
d="M391 1327q-69 0 -118 39q-50 39 -50 115q0 67 48 109t120 42t120 -42t48 -109q0 -76 -50 -115q-49 -39 -118 -39zM0 287h254v866h287v-1153h-541v287z" />
    <glyph glyph-name="uni06BA.medi" horiz-adv-x="720" 
d="M0 287h254v866h287v-866h219v-287h-760v287zM389 1327q-69 0 -118 39q-50 39 -50 115q0 67 48 109t120 42t120 -42t48 -109q0 -76 -50 -115q-49 -39 -118 -39z" />
    <glyph glyph-name="uni06C2.fina" horiz-adv-x="1091" 
d="M760 0v868h-129q-56 0 -96 -11q-44 -12 -78 -40q-35 -29 -56 -74q-20 -43 -20 -98v-342h-287v303q0 151 43 256q43 106 135 180q74 59 171 85q103 28 219 28h385v-868h206v-287h-493zM610 1470q0 140 69 197t189 57h123v-92h-106q-63 0 -86 -26q-25 -28 -25 -76v-55h283
v-154h-447v149z" />
    <glyph glyph-name="wasle" horiz-adv-x="202" 
d="M12 287h232v-287h-324z" />
    <glyph glyph-name="wasle_alt" horiz-adv-x="358" 
d="M12 287h387v-287h-479z" />
    <glyph glyph-name="uni0654.medi" horiz-adv-x="686" 
d="M115 1399q0 140 68 196q70 58 190 58h123v-92h-107q-62 0 -86 -27t-24 -76v-55h282v-154h-446v150z" />
    <glyph glyph-name="uni0654064B" 
d="M-190 74q0 140 68 196q70 58 190 58h102v-92h-86q-62 0 -86 -27q-25 -28 -25 -76h263v-133h-426v74zM-229 487l458 66v-96l-458 -66v96zM-231 655l458 66v-96l-458 -66v96z" />
    <glyph glyph-name="uni0654064E" 
d="M-229 498l458 65v-102l-458 -66v103zM-195 74q0 139 69 196q70 58 189 58h103v-92h-86q-62 0 -86 -27q-25 -28 -25 -76h262v-133h-426v74z" />
    <glyph glyph-name="uni0654064C" 
d="M-276 594l96 39l51 -144l96 15q-12 30 -12 63q0 69 40 122q41 54 130 54q67 0 109 -46q42 -47 42 -119q0 -18 -2 -58q-1 -23 -10 -71l-457 -72zM-158 74q0 139 69 196q70 58 189 58h103v-92h-86q-62 0 -86 -27q-25 -28 -25 -76h262v-133h-426v74zM45 573q0 -29 8 -55
l123 21q2 10 2 32q0 31 -16 51q-16 21 -51 21q-27 0 -46 -18q-20 -18 -20 -52z" />
    <glyph glyph-name="uni0654064F" 
d="M-240 471l162 27q-12 30 -12 63q0 68 39 122t129 54q69 0 111 -46q42 -47 42 -120q0 -17 -2 -57q-1 -25 -10 -72l-448 -67zM-186 72q0 140 68 196q70 58 190 58h102v-93h-86q-63 0 -86 -26q-25 -28 -25 -76h263v-133h-426v74zM-2 567q0 -31 8 -55l123 20q4 15 4 33
q0 30 -16 50q-17 22 -51 22q-28 0 -49 -19q-19 -18 -19 -51z" />
    <glyph glyph-name="uni06540652" 
d="M-6 393q-77 0 -120 43q-44 44 -44 139q0 89 49 138t127 49q80 0 124 -50t44 -137q0 -86 -51 -134t-129 -48zM0 489q27 0 52 17q24 16 24 67q0 48 -23 69q-24 22 -53 22q-22 0 -47 -19t-25 -67q0 -55 22 -72t50 -17zM-213 74q0 139 69 196q70 58 189 58h102v-92h-86
q-62 0 -86 -27t-24 -76h262v-133h-426v74z" />
    <glyph glyph-name="uni0654064D" 
d="M-225 -592l458 66v-97l-458 -65v96zM-227 -424l458 66v-97l-458 -65v96zM-231 -254q0 141 68 197q69 57 190 57h102v-92h-86q-62 0 -86 -27q-25 -28 -25 -76h263v-133h-426v74z" />
    <glyph glyph-name="uni06550650" 
d="M-231 -254q0 141 68 197q69 57 190 57h102v-92h-86q-62 0 -86 -27q-25 -28 -25 -76h263v-133h-426v74zM-227 -440l458 65v-102l-458 -66v103z" />
    <glyph glyph-name="wasla" 
d="M-279 113h142q0 35 12 70q11 33 37 60q24 25 59 42q33 16 78 16q106 0 168 -55q64 -56 64 -166v-80h-560v113zM45 209q-48 0 -69 -29q-21 -28 -21 -67h182q0 37 -22 66q-23 30 -70 30z" />
    <glyph glyph-name="uni0651064B" 
d="M-106 0q-52 0 -93 30q-40 30 -55 101l-22 115l100 20l20 -110q7 -32 24 -46q15 -12 34 -12q28 0 45 22q16 20 16 62q0 24 -4 48q-9 54 -10 59l102 14l21 -110q11 -52 55 -52q57 0 57 60q0 26 -6 61q-6 37 -22 74l102 22q5 -28 12 -59l9 -47q4 -21 4 -41q0 -82 -43 -124
t-121 -42q-28 0 -52 15q-23 14 -36 34q-16 -37 -50 -65q-35 -29 -87 -29zM-252 440l459 66v-96l-459 -66v96zM-254 608l459 66v-96l-459 -66v96z" />
    <glyph glyph-name="uni06F4.urdu" horiz-adv-x="1495" 
d="M281 0v1380h286l383 -342l391 342v-376l-391 -336l-383 317v-985h-286z" />
    <glyph glyph-name="uni06F7.urdu" horiz-adv-x="1177" 
d="M154 0v289l469 1091h311l-469 -1093h559v-287h-870z" />
    <glyph glyph-name="acute.case" horiz-adv-x="649" 
d="M295 1731h-234l242 286h285z" />
    <glyph glyph-name="circumflex.case" horiz-adv-x="968" 
d="M907 1731h-239l-181 172l-186 -172h-240l277 286h297z" />
    <glyph glyph-name="dieresis.case" horiz-adv-x="976" 
d="M213 2013q66 0 110 -38t44 -99q0 -65 -48 -104q-43 -37 -106 -37q-59 0 -105 37q-47 38 -47 104q0 62 43 99q44 38 109 38zM764 2013q64 0 108 -38q43 -37 43 -99q0 -70 -45 -104q-43 -37 -106 -37t-107 37q-45 38 -45 104q0 62 43 99q44 38 109 38z" />
    <glyph glyph-name="grave.case" horiz-adv-x="649" 
d="M61 2017h287l240 -286h-234z" />
    <glyph glyph-name="ring.case" horiz-adv-x="557" 
d="M281 2142q89 0 152 -57t63 -148q0 -92 -62 -149t-153 -57q-93 0 -156 57q-64 58 -64 149q0 90 64 148q63 57 156 57zM281 2052q-46 0 -83 -32q-36 -32 -36 -83q0 -54 36 -84t83 -30q45 0 80 30q34 30 34 84q0 52 -34 83q-35 32 -80 32z" />
    <glyph glyph-name="tilde.case" horiz-adv-x="899" 
d="M592 1896q51 0 74 29q21 26 32 82h140q-10 -133 -74 -200q-63 -66 -156 -66q-53 0 -91 17q-47 21 -75 38q-23 14 -67 38q-31 17 -70 17q-51 0 -72 -28q-19 -25 -30 -82h-142q10 121 74 194q63 72 158 72q53 0 91 -17q43 -19 74 -38q23 -14 65 -38q31 -18 69 -18z" />
    <glyph glyph-name="cedilla.case" horiz-adv-x="546" 
d="M61 -313q20 -9 74 -22q47 -11 92 -11q50 0 89 14q42 15 42 58q0 44 -43 59q-41 14 -96 14q-35 0 -75 -5q-35 -4 -58 -9l129 217h113l-70 -117q39 2 73 -2q44 -5 75 -21q34 -18 57 -48q22 -29 22 -80q0 -53 -20 -87q-21 -37 -55 -60q-31 -22 -80 -33q-47 -11 -94 -11
q-42 0 -84 5q-33 4 -82 22z" />
    <glyph glyph-name="caron.case" horiz-adv-x="968" 
d="M61 2017h226l194 -174l199 174h227l-291 -286h-268z" />
    <glyph glyph-name="macron.case" horiz-adv-x="724" 
d="M61 1784v176h603v-176h-603z" />
    <glyph glyph-name="breve.case" horiz-adv-x="831" 
d="M770 2036q-11 -150 -103 -228q-92 -77 -253 -77q-155 0 -248 77q-94 78 -105 228h150q10 -89 69 -124q58 -34 136 -34q77 0 136 34q61 35 71 124h147z" />
    <glyph glyph-name="dotaccent.case" horiz-adv-x="428" 
d="M213 2013q66 0 110 -38t44 -99q0 -65 -48 -104q-43 -37 -106 -37q-59 0 -105 37q-47 38 -47 104q0 62 43 99q44 38 109 38z" />
    <glyph glyph-name="hungarumlaut.case" horiz-adv-x="1118" 
d="M295 1731h-234l242 286h285zM766 1731h-236l240 286h287z" />
    </font>
</defs>
</svg>
